倒计时[中文字幕].Countdown.2011.1080p.WEB-DL.AAC.2.0.H.264-CTRLWEB 3.12GB

版主小s 28天前 229

◎译 名 倒计时 / 倒数 / Countdown

◎片 名 ?????

◎年 代 2011

◎产 地 韩国

◎类 别 剧情 / 动作

◎语 言 韩语

◎上映日期 2011-09-29(韩国)

◎IMDb链接 https://www.imdb.com/title/tt1814665/

◎豆瓣评分 6.2/10 (1422人评价)

◎豆瓣链接 https://movie.douban.com/subject/5908475/

◎片 长 120分钟

◎导 演 许宗昊 Jong-ho Huh (id:1354053)

◎编 剧 许宗昊 Jong-ho Huh (id:1354053)

◎演 员 郑在泳 Jae-yeong Jeong (id:1041961)

全度妍 Do-yeon Jeon (id:1067813)

李璟荣 Kyeong-yeong Lee (id:1039491)

郑满植 Man-shik Jeong (id:1327294)

金东旭 Dong-wook Kim (id:1316185)

裴晟祐 Sung-Woo Bae (id:1350654)

金光奎 Kwang-gyu Kim (id:1317057)

吴光禄 Kwang-rok Oh (id:1203325)

吴万石 Man-seok Oh (id:1314529)

金正碧 Jung-pal Kim (id:1380175)

金江日 Kang-il Kim (id:1395137)

金俊元 Jun-won Kim (id:1390363)

崔钟律 Jong-ryeol Choi (id:1395341)

权成国 Seong-gook Kwon (id:1366522)

徐东锡 Seo Dong-seok (id:1385929)

郑惠先 Hye-sun Jung (id:1399988)

金钟求 Kim Jong-goo (id:1379540)

金哲秀 Cheol-Soo Kim (id:1425666)

赵诗內 Si-nae Jo (id:1429758)

金在华 Jae-hwa Kim (id:1339671)

吴代焕 Oh Dae-hwan (id:1376705)

安秀浩 Soo-ho Ahn (id:1437477)

魏智雄 Ji-woong Wi (id:1455861)

吴贞媛 Jeong-won Oh (id:1456479)

朴惠珍 Hye-jin Park (id:1456991)

张领圭 Young-gyu Jang (id:1329974)

姜其永 Dalpalan (id:1403066)

金泰庆 Tae-kyung Kim (id:1353561)

权成国 Seong-gook Kwon (id:1366522)

◎简 介

泰建浩(郑在泳 饰)是一名职业讨债人,痛苦的过去令他的个性变得异常冷酷,为了完成工作几乎可以说是不择手段。某日,医生诊断泰建浩患上了肝癌,时日无多,唯一能够保命的方法,就是在十日之内接受肝脏移植手术。

泰建浩锁定了名为车夏媛(全度妍 饰)的女子,准确的说是锁定了她的肝脏,然而,车夏媛此时正因为欺诈的罪名被关在铁窗之后。泰建浩找到了车夏媛,后者同意移植肝脏,但泰建浩必须帮她找到陷害她入狱的师傅赵明植(李庆荣 饰),她的脑袋里只有报仇这一个念头。并非善男信女的两人仅凭利益结成了奇怪的搭档,却滋生出了一段奇妙的感情。

  1. ##### MediaInfo ######

  2. General

  3. Unique ID : 232111250938085151326262577881964444252 (0xAE9F00386E96CB851DF1E657C3157A5C)

  4. Complete name : Countdown.2011.1080p.WEB-DL.AAC.2.0.H.264-CTRLWEB.mkv

  5. Format : Matroska

  6. Format version : Version 4

  7. File size : 3.12 GiB

  8. Duration : 1 h 59 min

  9. Overall bit rate : 3 734 kb/s

  10. Encoded date : UTC 2022-05-26 05:10:26

  11. Writing application : mkvmerge v65.0.0 ('Too Much') 64-bit

  12. Writing library : libebml v1.4.2 + libmatroska v1.6.4

  13. Video

  14. ID : 1

  15. Format : AVC

  16. Format/Info : Advanced Video Codec

  17. Format profile : High@L4.1

  18. Format settings : CABAC / 1 Ref Frames

  19. Format settings, CABAC : Yes

  20. Format settings, Reference frames : 1 frame

  21. Format settings, GOP : M=1, N=60

  22. Codec ID : V_MPEG4/ISO/AVC

  23. Duration : 1 h 59 min

  24. Bit rate mode : Constant

  25. Bit rate : 3 606 kb/s

  26. Nominal bit rate : 4 000 kb/s

  27. Width : 1 920 pixels

  28. Height : 1 080 pixels

  29. Display aspect ratio : 16:9

  30. Frame rate mode : Constant

  31. Frame rate : 29.970 (30000/1001/53354) FPS

  32. Color space : YUV

  33. Chroma subsampling : 4:2:0

  34. Bit depth : 8 bits

  35. Scan type : Progressive

  36. Bits/(Pixel*Frame) : 0.058

  37. Stream size : 3.01 GiB (97%)

  38. Default : Yes

  39. Forced : No

  40. Audio

  41. ID : 2

  42. Format : AAC LC

  43. Format/Info : Advanced Audio Codec Low Complexity

  44. Codec ID : A_AAC-2

  45. Duration : 1 h 59 min

  46. Bit rate : 125 kb/s

  47. Channel(s) : 2 channels

  48. Channel layout : L R

  49. Sampling rate : 48.0 kHz

  50. Frame rate : 46.875 FPS (1024 SPF)

  51. Compression mode : Lossy

  52. Stream size : 107 MiB (3%)

  53. Language : Korean

  54. Default : Yes

  55. Forced : No

  56. Text

  57. ID : 3

  58. Format : UTF-8

  59. Codec ID : S_TEXT/UTF8

  60. Codec ID/Info : UTF-8 Plain Text

  61. Duration : 1 h 52 min

  62. Bit rate : 28 b/s

  63. Count of elements : 1021

  64. Stream size : 23.8 KiB (0%)

  65. Title : Traditional (SDH)

  66. Language : Chinese

  67. Default : No

  68. Forced : No


复制代码


TAGS 动作 剧情 /

磁力链:
  • magnet:?xt=urn:btih:A9BC65597B28F43FAEDADB35B12322B622384099
上传的附件:
BT9527电影天堂 1、BT9527电影天堂提供的BT文件均来源于互联网抓取,只供网友学习交流、技术提升使用。
2、我们遵守BitTorrent点对点协议原则,任何版权问题请联系原资源发布商,我们不处理任何版权纠纷,谢谢!如有争议请联系邮箱:BT9527#hotmail.com(#换成@)
3、如果您发现某页面或地址有错误,请联系站长邮箱BT9527#hotmail.com(#换成@),我们会尽快处理。您的热心是对BT9527电影天堂最大的支持。
4、本站建议去正规影院观看电影以支持电影行业发展。
最新回复 (0)

你可以在 登录 or 注册 后,对此帖发表评论!

返回
发新帖