峰爆[国语音轨/简繁英字幕].Cloudy.Mountain.2021.BluRay.1080p.TrueHD.5.1.x265.10bit-ALT 9.01GB

版主小s 1月前 133

◎译 名 峰爆 / 无限救援 / 无限深度 / Cloudy Mountain / Infinite Depth

◎年 代 2021

◎产 地 中国大陆

◎类 别 剧情 / 动作 / 灾难

◎语 言 汉语普通话

◎上映日期 2021-09-17(中国大陆)

◎IMDb链接 https://www.imdb.com/title/tt15413054/

◎豆瓣评分 6.3/10 (144481人评价)

◎豆瓣链接 https://movie.douban.com/subject/35231370/

◎片 长 114分钟

◎导 演 李骏 Jun Li (id:1320190)

◎编 剧 沙颂 Song Sha (id:1327765)

李骏 Jun Li (id:1320190)

◎演 员 朱一龙 Yilong Zhu (id:1318883)

黄志忠 Zhizhong Huang (id:1255860)

陈数 Shu Chen (id:1274346)

焦俊艳 Junyan Jiao (id:1312818)

成泰燊 Taishen Cheng (id:1196361)

王戈 Ge Wang (id:1375802)

卢思宇 Siyu Lu (id:1435098)

洪剑涛 Jiantao Hong (id:1274654)

周晓鸥 Xiaoou Zhou (id:1316334)

斌子 Zi Bin (id:1322802)

孙一理 Yi-li Sun (id:1316040)

黄超 Chao Huang (id:1422009)

闫鹏 Peng Yan (id:1433697)

张国立 Guoli Zhang (id:1015115)

张译 Yi Zhang (id:1274761)

白客 White. K (id:1332932)

乔欣 Bridgette (id:1351423)

李光洁 Guangjie Li (id:1275178)

乔振宇 Zhenyu Qiao (id:1275683)

章申 Shen Zhang (id:1314409)

于莎莎 Shasha Yu (id:1327598)

陶虹 Hong Tao (id:1015199)

陈卓 Zhuo Chen (id:1460651)

赵晓时 Xiaoshi Zhao (id:1310556)

焦宏奋 Hongfen Jiao (id:1412277)

傅若清 Ruoqing Fu (id:1417588)

许建海 Jianhai Xu (id:1384186)

崔陆萌 Lumeng Cui (id:1349292)

陈洁 Jessica Chen (id:1449063)

杨东 Dong Yang (id:1403121)

郭思达 Sida Guo (id:1392594)

张杰 Jie Zhang (id:1274727)

赵晓时 Xiaoshi Zhao (id:1310556)

顾海平 Haiping Gu (id:1471551)

罗礼贤 Bruce Law (id:1289542)

罗义民 Norman Law (id:1316462)

张冀 Ji Zhang (id:1327606)

陶虹 Hong Tao (id:1015199)

◎简 介

一座修建十年的隧道即将竣工之际,受全球地质变动影响,地裂、地震、山体滑坡、泥石流等一系列地质灾害呼啸而至,隧道与整个县城危在旦夕,“老洪”洪赟兵(黄志忠 饰)、“小洪”洪翼舟(朱一龙 饰)父子俩于绝境处挺身而出,他们如何与16万人度过这场生死危机?

  1. ##### MediaInfo ######

  2. General

  3. Unique ID : 286428131553458901119262718084324768033 (0xD77C0D3235595401FEE02FC9F6DBB921)

  4. Complete name : Cloudy.Mountain.2021.BluRay.1080p.TrueHD.5.1.x265.10bit-ALT.mkv

  5. Format : Matroska

  6. Format version : Version 4

  7. File size : 9.01 GiB

  8. Duration : 1 h 54 min

  9. Overall bit rate mode : Variable

  10. Overall bit rate : 11.2 Mb/s

  11. Encoded date : UTC 2022-05-30 12:20:57

  12. Writing application : mkvmerge v49.0.0 ('Sick Of Losing Soulmates') 64-bit

  13. Writing library : libebml v1.4.0 + libmatroska v1.6.1

  14. Video

  15. ID : 1

  16. Format : HEVC

  17. Format/Info : High Efficiency Video Coding

  18. Format profile : Main 10@L5.1@High

  19. Codec ID : V_MPEGH/ISO/HEVC

  20. Duration : 1 h 54 min

  21. Bit rate : 7 501 kb/s

  22. Width : 1 920 pixels

  23. Height : 962 pixels

  24. Display aspect ratio : 1.996

  25. Frame rate mode : Constant

  26. Frame rate : 24.000 FPS

  27. Color space : YUV

  28. Chroma subsampling : 4:2:0

  29. Bit depth : 10 bits

  30. Bits/(Pixel*Frame) : 0.169

  31. Stream size : 6.01 GiB (67%)

  32. Title : HEVC, x265Main10@L5.1@High, 24 fps @ 9075 kbps

  33. Writing library : x265 3.5+36-1f2c8da77:[Windows][GCC 11.2.0][64 bit] 10bit

  34. Encoding settings : cpuid=533541111039 / frame-threads=4 / numa-pools=20 / wpp / no-pmode / no-pme / no-psnr / no-ssim / log-level=2 / input-csp=1 / input-res=1920x962 / interlace=0 / total-frames=165246 / level-idc=51 / high-tier=1 / uhd-bd=0 / ref=5 / no-allow-non-conformance / no-repeat-headers / annexb / no-aud / no-eob / no-eos / no-hrd / info / hash=0 / no-temporal-layers / open-gop / min-keyint=24 / keyint=240 / gop-lookahead=0 / bframes=6 / b-adapt=2 / b-pyramid / bframe-bias=0 / rc-lookahead=40 / lookahead-slices=0 / NTMzNTQ=uuDQuD2mJt9fsCf / scenecut=40 / no-hist-scenecut / radl=0 / no-splice / no-intra-refresh / ctu=32 / min-cu-size=8 / no-rect / no-amp / max-tu-size=32 / tu-inter-depth=3 / tu-intra-depth=3 / limit-tu=4 / rdoq-level=2 / dynamic-rd=0.00 / no-ssim-rd / signhide / no-tskip / nr-intra=0 / nr-inter=0 / no-constrained-intra / no-strong-intra-smoothing / max-merge=4 / limit-refs=1 / limit-modes / me=3 / subme=4 / merange=25 / temporal-mvp / no-frame-dup / no-hme / weightp / weightb / no-analyze-src-pics / deblock=-3:-3 / no-sao / no-sao-non-deblock / rd=6 / selective-sao=0 / no-early-skip / rskip / no-fast-intra / no-tskip-fast / no-cu-lossless / b-intra / no-splitrd-skip / rdpenalty=0 / psy-rd=2.00 / psy-rdoq=1.00 / no-rd-refine / no-lossless / cbqpoffs=-2 / crqpoffs=-2 / rc=crf / crf=17.0 / qcomp=0.65 / qpstep=4 / stats-write=0 / stats-read=0 / vbv-maxrate=80000 / vbv-bufsize=80000 / vbv-init=0.9 / min-vbv-fullness=50.0 / max-vbv-fullness=80.0 / crf-max=0.0 / crf-min=0.0 / ipratio=1.40 / pbratio=1.30 / aq-mode=2 / aq-strength=0.85 / cutree / zone-count=0 / no-strict-cbr / qg-size=32 / no-rc-grain / qpmax=69 / qpmin=0 / no-const-vbv / sar=1 / overscan=0 / videoformat=5 / range=0 / colorprim=1 / transfer=1 / colormatrix=1 / chromaloc=0 / display-window=0 / cll=0,0 / min-luma=0 / max-luma=1023 / log2-max-poc-lsb=8 / vui-timing-info / vui-hrd-info / slices=1 / no-opt-qp-pps / no-opt-ref-list-length-pps / no-multi-pass-opt-rps / scenecut-bias=0.05 / hist-threshold=0.03 / no-opt-cu-delta-qp / no-aq-motion / no-hdr10 / no-hdr10-opt / no-dhdr10-opt / no-idr-recovery-sei / analysis-reuse-level=0 / analysis-save-reuse-level=0 / analysis-load-reuse-level=0 / scale-factor=0 / refine-intra=0 / refine-inter=0 / refine-mv=1 / refine-ctu-distortion=0 / no-limit-sao / ctu-info=0 / no-lowpass-dct / refine-analysis-type=0 / copy-pic=1 / max-ausize-factor=1.0 / no-dynamic-refine / no-single-sei / no-hevc-aq / no-svt / no-field / qp-adaptation-range=1.00 / scenecut-aware-qp=0conformance-window-offsets / right=0 / bottom=0 / NTMzNTQ= / decoder-max-rate=0 / no-vbv-live-multi-pass

  35. Language : English

  36. Default : Yes

  37. Forced : No

  38. Color range : Limited

  39. Color primaries : BT.709

  40. Transfer characteristics : BT.709

  41. Matrix coefficients : BT.709

  42. Audio #1

  43. ID : 2

  44. Format : MLP FBA

  45. Format/Info : Meridian Lossless Packing FBA

  46. Commercial name : Dolby TrueHD

  47. Codec ID : A_TRUEHD

  48. Duration : 1 h 54 min

  49. Bit rate mode : Variable

  50. Bit rate : 2 957 kb/s

  51. Maximum bit rate : 4 560 kb/s

  52. Channel(s) : 6 channels

  53. Channel layout : L R C LFE Ls Rs

  54. Sampling rate : 96.0 kHz

  55. Frame rate : 1 200.000 FPS (80 SPF)

  56. Compression mode : Lossless

  57. Stream size : 2.37 GiB (26%)

  58. Title : Mandarin Dolby TrueHD 5.1 @ 3597 kbps

  59. Language : Chinese

  60. Default : Yes

  61. Forced : No

  62. Audio #2

  63. ID : 3

  64. Format : AC-3

  65. Format/Info : Audio Coding 3

  66. Commercial name : Dolby Digital

  67. Codec ID : A_AC3

  68. Duration : 1 h 54 min

  69. Bit rate mode : Constant

  70. Bit rate : 640 kb/s

  71. Channel(s) : 6 channels

  72. Channel layout : L R C LFE Ls Rs

  73. Sampling rate : 48.0 kHz

  74. Frame rate : 31.250 FPS (1536 SPF)

  75. Compression mode : Lossy

  76. Stream size : 525 MiB (6%)

  77. Title : Mandarin Dolby Digital Audio 5.1 @ 640 kbps

  78. Language : Chinese

  79. Service kind : Complete Main

  80. Default : No

  81. Forced : No

  82. Text #1

  83. ID : 4

  84. Format : PGS

  85. Codec ID : S_HDMV/PGS

  86. Codec ID/Info : Picture based subtitle format used on BDs/HD-DVDs

  87. Duration : 1 h 45 min

  88. Bit rate : 24.5 kb/s

  89. Count of elements : 2359

  90. Stream size : 18.5 MiB (0%)

  91. Title : Cht/SUP 原盘繁体

  92. Language : Chinese

  93. Default : No

  94. Forced : No

  95. Text #2

  96. ID : 5

  97. Format : PGS

  98. Codec ID : S_HDMV/PGS

  99. Codec ID/Info : Picture based subtitle format used on BDs/HD-DVDs

  100. Duration : 1 h 45 min

  101. Bit rate : 22.7 kb/s

  102. Count of elements : 2359

  103. Stream size : 17.2 MiB (0%)

  104. Title : Chs/SUP 原盘简体

  105. Language : Chinese

  106. Default : Yes

  107. Forced : No

  108. Text #3

  109. ID : 6

  110. Format : PGS

  111. Codec ID : S_HDMV/PGS

  112. Codec ID/Info : Picture based subtitle format used on BDs/HD-DVDs

  113. Duration : 1 h 45 min

  114. Bit rate : 28.7 kb/s

  115. Count of elements : 2374

  116. Stream size : 21.7 MiB (0%)

  117. Title : Eng/SUP

  118. Language : English

  119. Default : No

  120. Forced : No

  121. Menu

  122. 00:00:00.000 : en:第 01 章

  123. 00:08:13.500 : en:第 02 章

  124. 00:15:02.917 : en:第 03 章

  125. 00:26:11.792 : en:第 04 章

  126. 00:39:31.542 : en:第 05 章

  127. 00:46:21.792 : en:第 06 章

  128. 00:51:56.000 : en:第 07 章

  129. 01:03:59.958 : en:第 08 章

  130. 01:13:17.125 : en:第 09 章

  131. 01:26:38.208 : en:第 10 章

  132. 01:36:10.583 : en:第 11 章

  133. 01:42:57.292 : en:第 12 章


复制代码


TAGS 动作 剧情 / 灾难

磁力链:
  • magnet:?xt=urn:btih:5F773408786E448824125C6DD92AAAAFB215BF14
上传的附件:
BT9527电影天堂 1、BT9527电影天堂提供的BT文件均来源于互联网抓取,只供网友学习交流、技术提升使用。
2、我们遵守BitTorrent点对点协议原则,任何版权问题请联系原资源发布商,我们不处理任何版权纠纷,谢谢!如有争议请联系邮箱:BT9527#hotmail.com(#换成@)
3、如果您发现某页面或地址有错误,请联系站长邮箱BT9527#hotmail.com(#换成@),我们会尽快处理。您的热心是对BT9527电影天堂最大的支持。
4、本站建议去正规影院观看电影以支持电影行业发展。
最新回复 (0)

你可以在 登录 or 注册 后,对此帖发表评论!

返回
发新帖