今夜结束之前[中文字幕].Before.Tonight.is.Over.1966.GBR.BluRay.1080p.LPCM.2.0.x265.10bit-CTRLHD 8.35GB

版主小s 1月前 118

◎译 名 今夜结束之前 / Before This Night Is Over

◎片 名 Kym sa skon?í táto noc

◎年 代 1966

◎产 地 捷克斯洛伐克

◎类 别 剧情

◎语 言 斯洛伐克语 / 德语

◎上映日期 1966-03-25

◎IMDb链接 https://www.imdb.com/title/tt0174844/

◎豆瓣评分 7.3/10 (123人评价)

◎豆瓣链接 https://movie.douban.com/subject/3380374/

◎片 长 Czechoslovakia: 91 分钟

◎导 演 彼得·索兰 Peter Solan (id:1048872)

◎编 剧 彼得·索兰 Peter Solan (id:1048872)

◎演 员 亚娜·吉罗娃 Jana Gyrová (id:1096921)

伊特卡·泽莱诺霍尔斯卡 Jitka Zelenohorská (id:1160744)

斯塔诺·丹恰克 Stano Danciak (id:1075761)

马里安·洛布道 Marián Labuda (id:1107823)

尤利乌斯·潘季克 Július Pántik (id:1143817)

瓦莲京娜·蒂洛娃 Valentina Thielová (id:1160026)

弗拉迪米尔·杜尔迪克 Vladimír Durdík (id:1090177)

威廉·波洛尼 Viliam Polónyi (id:1133005)

卡罗尔·什皮沙克 Karol Spisák (id:1153507)

伊万·克里沃苏德斯基 Ivan Krivosudsky (id:1112685)

奥莉加·弗龙斯卡 Ol'ga Vronská (id:1163718)

Vincent Rosinec Vincent Rosinec (id:1047587)

Maximilián Remen Maximilián Remen (id:1040303)

◎简 介

索兰的新浪潮三部曲之二。另两部是《巴纳巴斯考斯事件》和《拳击手与死神》。

The action of the film takes place in the course of one night at a fashionable nightclub in Bratislava. The leading characters are two young girls who are spending their holiday in Bratislava and two boys who live there.

  1. ##### MediaInfo ######

  2. General

  3. Unique ID : 231175180044008237287415264188302996633 (0xADEAB85CB4D33165D653820BEAF9B499)

  4. Complete name : Before.Tonight.is.Over.1966.GBR.BluRay.1080p.LPCM.2.0.x265.10bit-CTRLHD.mkv

  5. Format : Matroska

  6. Format version : Version 4

  7. File size : 8.35 GiB

  8. Duration : 1 h 34 min

  9. Overall bit rate : 12.7 Mb/s

  10. Encoded date : UTC 2022-05-31 07:18:01

  11. Writing application : mkvmerge v68.0.0 ('The Curtain') 64-bit

  12. Writing library : libebml v1.4.2 + libmatroska v1.6.4

  13. Video

  14. ID : 1

  15. Format : HEVC

  16. Format/Info : High Efficiency Video Coding

  17. Format profile : Main 10@L5.1@High

  18. Codec ID : V_MPEGH/ISO/HEVC

  19. Duration : 1 h 29 min

  20. Bit rate : 11.8 Mb/s

  21. Width : 1 452 pixels

  22. Height : 1 080 pixels

  23. Display aspect ratio : 4:3

  24. Frame rate mode : Constant

  25. Frame rate : 24.000 FPS

  26. Color space : YUV

  27. Chroma subsampling : 4:2:0 (Type 2)

  28. Bit depth : 10 bits

  29. Bits/(Pixel*Frame) : 0.312

  30. Stream size : 7.32 GiB (88%)

  31. Writing library : x265 3.5+20-17839cc0d:[Windows][GCC 11.2.0][64 bit] 10bit

  32. Encoding settings : cpuid=533541111039 / frame-threads=5 / numa-pools=32 / wpp / no-pmode / no-pme / no-psnr / no-ssim / log-level=2 / input-csp=1 / input-res=1452x1080 / interlace=0 / total-frames=128341 / level-idc=51 / high-tier=1 / uhd-bd=0 / ref=6 / no-allow-non-conformance / no-repeat-headers / annexb / no-aud / no-eob / no-eos / no-hrd / info / hash=0 / no-temporal-layers / no-open-gop / min-keyint=24 / keyint=250 / gop-lookahead=0 / bframes=14 / b-adapt=2 / b-pyramid / bframe-bias=0 / rc-lookahead=75 / lookahead-slices=6 / NTMzNTQ=uuDQuD2mJt9fsCf / scenecut=40 / no-hist-scenecut / radl=0 / no-splice / no-intra-refresh / ctu=32 / min-cu-size=8 / no-rect / no-amp / max-tu-size=32 / tu-inter-depth=1 / tu-intra-depth=1 / limit-tu=0 / rdoq-level=0 / dynamic-rd=0.00 / no-ssim-rd / signhide / no-tskip / nr-intra=0 / nr-inter=0 / no-constrained-intra / no-strong-intra-smoothing / max-merge=3 / limit-refs=1 / no-limit-modes / me=3 / subme=7 / merange=48 / temporal-mvp / no-frame-dup / hme / Level / merange / L0,L1,L2=24,36,48 / weightp / weightb / no-analyze-src-pics / deblock=0:0 / sao / no-sao-non-deblock / rd=4 / selective-sao=4 / early-skip / rskip / no-fast-intra / no-tskip-fast / no-cu-lossless / b-intra / no-splitrd-skip / rdpenalty=2 / psy-rd=2.00 / psy-rdoq=0.00 / no-rd-refine / no-lossless / cbqpoffs=0 / crqpoffs=0 / rc=crf / crf=16.0 / qcomp=0.60 / qpstep=4 / stats-write=0 / stats-read=0 / vbv-maxrate=160000 / vbv-bufsize=160000 / vbv-init=0.9 / min-vbv-fullness=50.0 / max-vbv-fullness=80.0 / crf-max=0.0 / crf-min=0.0 / ipratio=1.40 / pbratio=1.30 / aq-mode=1 / aq-strength=1.00 / cutree / zone-count=0 / no-strict-cbr / qg-size=32 / no-rc-grain / qpmax=69 / qpmin=0 / no-const-vbv / sar=0 / overscan=0 / videoformat=5 / range=0 / colorprim=1 / transfer=1 / colormatrix=1 / chromaloc=1 / chromaloc-top=2 / chromaloc-bottom=2 / display-window=0 / cll=0,0 / min-luma=0 / max-luma=1023 / log2-max-poc-lsb=8 / vui-timing-info / vui-hrd-info / slices=1 / no-opt-qp-pps / no-opt-ref-list-length-pps / no-multi-pass-opt-rps / scenecut-bias=0.05 / hist-threshold=0.03 / no-opt-cu-delta-qp / aq-motion / no-hdr10 / no-hdr10-opt / no-dhdr10-opt / no-idr-recovery-sei / analysis-reuse-level=0 / analysis-save-reuse-level=0 / analysis-load-reuse-level=0 / scale-factor=0 / refine-intra=0 / refine-inter=0 / refine-mv=1 / refine-ctu-distortion=0 / no-limit-sao / ctu-info=0 / no-lowpass-dct / refine-analysis-type=0 / copy-pic=1 / max-ausize-factor=1.0 / no-dynamic-refine / no-single-sei / no-hevc-aq / no-svt / no-field / qp-adaptation-range=1.00 / scenecut-aware-qp=0conformance-window-offsets / right=0 / bottom=0 / NTMzNTQ= / decoder-max-rate=0 / no-vbv-live-multi-pass

  33. Default : Yes

  34. Forced : No

  35. Color range : Limited

  36. Color primaries : BT.709

  37. Transfer characteristics : BT.709

  38. Matrix coefficients : BT.709

  39. Audio

  40. ID : 2

  41. Format : PCM

  42. Format settings : Little / Signed

  43. Codec ID : A_PCM/INT/LIT

  44. Duration : 1 h 34 min

  45. Bit rate mode : Constant

  46. Bit rate : 1 536 kb/s

  47. Channel(s) : 2 channels

  48. Sampling rate : 48.0 kHz

  49. Frame rate : 25.000 FPS (1920 SPF)

  50. Bit depth : 16 bits

  51. Stream size : 1.01 GiB (12%)

  52. Language : Slovak

  53. Default : Yes

  54. Forced : No

  55. Text #1

  56. ID : 3

  57. Format : PGS

  58. Muxing mode : zlib

  59. Codec ID : S_HDMV/PGS

  60. Codec ID/Info : Picture based subtitle format used on BDs/HD-DVDs

  61. Duration : 1 h 26 min

  62. Bit rate : 25.3 kb/s

  63. Count of elements : 1798

  64. Stream size : 15.7 MiB (0%)

  65. Language : Chinese

  66. Default : Yes

  67. Forced : No

  68. Text #2

  69. ID : 4

  70. Format : PGS

  71. Muxing mode : zlib

  72. Codec ID : S_HDMV/PGS

  73. Codec ID/Info : Picture based subtitle format used on BDs/HD-DVDs

  74. Duration : 1 h 26 min

  75. Bit rate : 26.7 kb/s

  76. Count of elements : 1798

  77. Stream size : 16.5 MiB (0%)

  78. Language : Chinese

  79. Default : Yes

  80. Forced : No

  81. Menu

  82. 00:00:00.000 : zh:第 01 章

  83. 00:12:13.208 : zh:第 02 章

  84. 00:18:41.750 : zh:第 03 章

  85. 00:24:24.125 : zh:第 04 章

  86. 00:28:57.167 : zh:第 05 章

  87. 00:39:41.458 : zh:第 06 章

  88. 00:47:03.167 : zh:第 07 章

  89. 00:52:55.708 : zh:第 08 章

  90. 01:01:47.542 : zh:第 09 章

  91. 01:11:10.917 : zh:第 10 章

  92. 01:20:41.542 : zh:第 11 章

  93. 01:26:30.125 : zh:第 12 章


复制代码


TAGS 剧情

磁力链:
  • magnet:?xt=urn:btih:5F05D0DE1B71E7BCFC2CB6F651F0B72BD1D924DE
上传的附件:
BT9527电影天堂 1、BT9527电影天堂提供的BT文件均来源于互联网抓取,只供网友学习交流、技术提升使用。
2、我们遵守BitTorrent点对点协议原则,任何版权问题请联系原资源发布商,我们不处理任何版权纠纷,谢谢!如有争议请联系邮箱:BT9527#hotmail.com(#换成@)
3、如果您发现某页面或地址有错误,请联系站长邮箱BT9527#hotmail.com(#换成@),我们会尽快处理。您的热心是对BT9527电影天堂最大的支持。
4、本站建议去正规影院观看电影以支持电影行业发展。
最新回复 (0)

你可以在 登录 or 注册 后,对此帖发表评论!

返回
发新帖