红粉联盟[国英多音轨/简繁英字幕].A.League.of.Their.Own.1992.2160p.HDR.UHD.BluRay.TrueHD.7.1.Atmos.2Audio.x265-10bit-ENTHD 18.32GB

版主小s 1月前 188



◎译  名 红粉联盟 / 女子棒球队 / 红粉本垒打 / 骄阳岁月
◎片  名 A League of Their Own
◎年  代 1992
◎产  地 美国
◎类  别 剧情 / 喜剧 / 运动
◎语  言 英语
◎上映日期 1992-07-01
◎IMDb链接 https://www.imdb.com/title/tt0104694/
◎豆瓣评分 7.6/10 (2011人评价)
◎豆瓣链接 https://movie.douban.com/subject/1294721/
◎片  长 128 分钟
◎导  演 潘妮·马歇尔 Penny Marshall (id:1027870)
◎编  剧 洛维尔·冈茨 Lowell Ganz (id:1050410)
       巴巴卢·曼德尔 Babaloo Mandel (id:1028109)
◎演  员 汤姆·汉克斯 Tom Hanks (id:1054450)
       吉娜·戴维斯 Geena Davis (id:1006979)
       罗莉·佩蒂 Lori Petty (id:1027827)
       麦当娜 Madonna (id:1022631)
       罗茜·欧唐内 Rosie O'Donnell (id:1002756)
       梅根·卡瓦纳芙 Megan Cavanagh (id:1076572)
       特雷西赖纳 Tracy Reiner (id:1138820)
       比蒂·施拉姆 Bitty Schram (id:1143995)
       安·库萨克 Ann Cusack (id:1017984)
       安妮·拉姆塞 Anne Ramsay (id:1147029)
       弗雷迪·辛普森 Freddie Simpson (id:1430256)
       Kelli Simpkins Kelli Simpkins (id:1297648)
       凯瑟琳·马歇尔 Kathleen Marshall (id:1119549)
       Pauline Brailsford Pauline Brailsford (id:1076339)
       大卫·斯特雷泽恩 David Strathairn (id:1007009)
       盖瑞·马歇尔 Garry Marshall (id:1041160)
       乔恩·拉威茨 Jon Lovitz (id:1055039)
       比尔·普尔曼 Bill Pullman (id:1036384)
       埃迪·琼斯 Eddie Jones (id:1337120)
       迈克尔·黑利 Michael Haley (id:1050644)
       唐·戴维斯 Don S. Davis (id:1025257)
       珍妮特·琼斯 Janet Jones (id:1108106)
       蒂娅·里欧妮 Téa Leoni (id:1055744)
       劳蕾尔·克罗宁 Laurel Cronin (id:1069469)
       罗伯特·斯坦顿 Robert Stanton (id:1154825)
       哈里·谢尔 Harry Shearer (id:1013923)
       乔伊·斯洛特尼克 Joey Slotnick (id:1152200)
       Stephen Feagley Stephen Feagley (id:1086886)
       Rae Allen Rae Allen (id:1058321)
       埃迪·梅卡 Eddie Mekka (id:1117723)
       斯蒂芬·梅尔勒 Stephen Mailer (id:1032597)
       Lynn Cartwright Lynn Cartwright (id:1076468)
       Barbara Erwin Barbara Erwin (id:1089836)
       Betty Miller Betty Miller (id:1121602)
       芭芭拉普莱恩 Barbara Pilavin (id:1129176)
       Marvin Einhorn Marvin Einhorn (id:1089443)
       德尔克洛斯 Del Close (id:1077508)
       Thomas Colby Thomas Colby (id:1173912)
       Doug Decker Doug Decker (id:1090192)
       大卫·L·兰德尔 David L. Lander (id:1010727)
       雷·托勒 Ray Toler (id:1154784)
       Amy Lemisch Amy Lemisch (id:1289775)
       罗伯特·格林赫特 Robert Greenhut (id:1285407)
       汉斯·季默 Hans Zimmer (id:1054386)
       Amanda Mackey Johnson Amanda Mackey Johnson (id:1290650)
       埃伦·路易斯 Ellen Lewis (id:1289949)
       小乔治·德蒂塔 George DeTitta Jr. (id:1282314)
       比尔·格鲁姆 Bill Groom (id:1285511)

◎简  介
  故事发生在二次世界大战期间,沃尔特(盖瑞·马歇尔 Garry Marshall 饰)是曾经风靡一时的棒球明星,如今,早已屈居二线的他决定组建一支史无前例的女子棒球队。他看重了漂亮高大的多利(吉娜·戴维斯 Geena Davis 饰),多利的妹妹基特(罗莉·佩蒂 Lori Petty 饰)也跟随着姐姐的脚步加入了球队。                                    
                                之后,马拉(梅根·卡瓦纳芙 Megan Cavanagh 饰)等一干得力干将的加入让球队的实力瞬间增强,在几次挫折之后,沃尔特的“娘子军”逐渐得到了体育界的认可。可是,就在这样的关键时刻,棒球队里却发生了内讧,马拉和基特离队,沃尔特也产生了放弃的想法。就在这时,多利远赴战场的丈夫鲍勃(比尔·普尔曼 Bill Pullman 饰)的归来让棒球队看到了新的希望。

◎获奖情况 (共4项)
  第50届金球奖 (1993)
  电影类 音乐/喜剧片最佳女主角(提名)
   └──吉娜·戴维斯 (id:1006979)
  电影类 最佳原创歌曲(提名)

  第16届日本电影学院奖 (1993)
  最佳外语片(提名)

  第17届报知映画赏 (1992)
  海外作品奖
   └──潘妮·马歇尔 (id:1027870)

  1. ##### MediaInfo ######
  2. General
  3. Unique ID                                : 159306019344545663340901801196740397742 (0x77D9392A0965C215297A667937EBCAAE)
  4. Complete name                            : A.League.of.Their.Own.1992.2160p.HDR.UHD.BluRay.TrueHD.7.1.Atmos.2Audio.x265-10bit-ENTHD.mkv
  5. Format                                   : Matroska
  6. Format version                           : Version 4
  7. File size                                : 18.3 GiB
  8. Duration                                 : 2 h 7 min
  9. Overall bit rate mode                    : Variable
  10. Overall bit rate                         : 20.5 Mb/s
  11. Movie name                               : A League of Their Own 1992 2160p HDR UHD BluRay TrueHD 7.1 Atmos 2Audio x265-10bit-HDS
  12. Encoded date                             : UTC 2022-05-31 04:30:35
  13. Writing application                      : mkvmerge v67.0.0 ('Under Stars') 64-bit
  14. Writing library                          : libebml v1.4.2 + libmatroska v1.6.4
  15. Video
  16. ID                                       : 1
  17. Format                                   : HEVC
  18. Format/Info                              : High Efficiency Video Coding
  19. Format profile                           : Main 10@L5.1@High
  20. HDR format                               : SMPTE ST 2086, HDR10 compatible
  21. Codec ID                                 : V_MPEGH/ISO/HEVC
  22. Duration                                 : 2 h 7 min
  23. Bit rate                                 : 16.2 Mb/s
  24. Width                                    : 3 840 pixels
  25. Height                                   : 1 600 pixels
  26. Display aspect ratio                     : 2.40:1
  27. Frame rate mode                          : Constant
  28. Frame rate                               : 23.976 (24000/1001/53354) FPS
  29. Color space                              : YUV
  30. Chroma subsampling                       : 4:2:0
  31. Bit depth                                : 10 bits
  32. Bits/(Pixel*Frame)                       : 0.110
  33. Stream size                              : 14.5 GiB (79%)
  34. Title                                    : @HDSky
  35. Writing library                          : x265 - H.265/HEVC codec
  36. Default                                  : Yes
  37. Forced                                   : No
  38. Color range                              : Limited
  39. Color primaries                          : BT.2020
  40. Transfer characteristics                 : PQ
  41. Matrix coefficients                      : BT.2020 non-constant
  42. Mastering display color primaries        : Display P3
  43. Mastering display luminance              : min: 0.0001 cd/m2, max: 1000 cd/m2
  44. Maximum Content Light Level              : 1595 cd/m2
  45. Maximum Frame-Average Light Level        : 479 cd/m2
  46. Audio #1
  47. ID                                       : 2
  48. Format                                   : MLP FBA 16-ch
  49. Format/Info                              : Meridian Lossless Packing FBA with 16-channel presentation
  50. Commercial name                          : Dolby TrueHD with Dolby Atmos
  51. Codec ID                                 : A_TRUEHD
  52. Duration                                 : 2 h 7 min
  53. Bit rate mode                            : Variable
  54. Bit rate                                 : 3 257 kb/s
  55. Maximum bit rate                         : 4 749 kb/s
  56. Channel(s)                               : 8 channels
  57. Channel layout                           : L R C LFE Ls Rs Lb Rb
  58. Sampling rate                            : 48.0 kHz
  59. Frame rate                               : 1 200.000 FPS (40 SPF)
  60. Compression mode                         : Lossless
  61. Stream size                              : 2.91 GiB (16%)
  62. Title                                    : English
  63. Language                                 : English
  64. Default                                  : Yes
  65. Forced                                   : No
  66. Number of dynamic objects                : 11
  67. Bed channel count                        : 1 channel
  68. Bed channel configuration                : LFE
  69. Audio #2
  70. ID                                       : 3
  71. Format                                   : AC-3
  72. Format/Info                              : Audio Coding 3
  73. Commercial name                          : Dolby Digital
  74. Codec ID                                 : A_AC3
  75. Duration                                 : 2 h 7 min
  76. Bit rate mode                            : Constant
  77. Bit rate                                 : 640 kb/s
  78. Channel(s)                               : 6 channels
  79. Channel layout                           : L R C LFE Ls Rs
  80. Sampling rate                            : 48.0 kHz
  81. Frame rate                               : 31.250 FPS (1536 SPF)
  82. Compression mode                         : Lossy
  83. Stream size                              : 586 MiB (3%)
  84. Service kind                             : Complete Main
  85. Default                                  : Yes
  86. Forced                                   : No
  87. Audio #3
  88. ID                                       : 4
  89. Format                                   : AC-3
  90. Format/Info                              : Audio Coding 3
  91. Commercial name                          : Dolby Digital
  92. Codec ID                                 : A_AC3
  93. Duration                                 : 2 h 7 min
  94. Bit rate mode                            : Constant
  95. Bit rate                                 : 192 kb/s
  96. Channel(s)                               : 2 channels
  97. Channel layout                           : L R
  98. Sampling rate                            : 48.0 kHz
  99. Frame rate                               : 31.250 FPS (1536 SPF)
  100. Compression mode                         : Lossy
  101. Stream size                              : 176 MiB (1%)
  102. Title                                    : Mandarin
  103. Language                                 : Chinese
  104. Service kind                             : Complete Main
  105. Default                                  : Yes
  106. Forced                                   : No
  107. Text #1
  108. ID                                       : 5
  109. Format                                   : PGS
  110. Muxing mode                              : zlib
  111. Codec ID                                 : S_HDMV/PGS
  112. Codec ID/Info                            : Picture based subtitle format used on BDs/HD-DVDs
  113. Duration                                 : 2 h 7 min
  114. Bit rate                                 : 44.8 kb/s
  115. Count of elements                        : 4274
  116. Stream size                              : 40.9 MiB (0%)
  117. Title                                    : ENG
  118. Language                                 : English
  119. Default                                  : Yes
  120. Forced                                   : No
  121. Text #2
  122. ID                                       : 6
  123. Format                                   : PGS
  124. Muxing mode                              : zlib
  125. Codec ID                                 : S_HDMV/PGS
  126. Codec ID/Info                            : Picture based subtitle format used on BDs/HD-DVDs
  127. Duration                                 : 2 h 7 min
  128. Bit rate                                 : 33.1 kb/s
  129. Count of elements                        : 3568
  130. Stream size                              : 30.2 MiB (0%)
  131. Title                                    : CHS
  132. Language                                 : Chinese
  133. Default                                  : Yes
  134. Forced                                   : No
  135. Text #3
  136. ID                                       : 7
  137. Format                                   : PGS
  138. Muxing mode                              : zlib
  139. Codec ID                                 : S_HDMV/PGS
  140. Codec ID/Info                            : Picture based subtitle format used on BDs/HD-DVDs
  141. Duration                                 : 2 h 7 min
  142. Bit rate                                 : 34.2 kb/s
  143. Count of elements                        : 3565
  144. Stream size                              : 31.2 MiB (0%)
  145. Title                                    : CHT
  146. Language                                 : Chinese
  147. Default                                  : Yes
  148. Forced                                   : No
  149. Text #4
  150. ID                                       : 8
  151. Format                                   : PGS
  152. Muxing mode                              : zlib
  153. Codec ID                                 : S_HDMV/PGS
  154. Codec ID/Info                            : Picture based subtitle format used on BDs/HD-DVDs
  155. Duration                                 : 2 h 7 min
  156. Bit rate                                 : 55.2 kb/s
  157. Count of elements                        : 3750
  158. Stream size                              : 50.4 MiB (0%)
  159. Title                                    : CHS&ENG
  160. Language                                 : Chinese
  161. Default                                  : Yes
  162. Forced                                   : No
  163. Text #5
  164. ID                                       : 9
  165. Format                                   : PGS
  166. Muxing mode                              : zlib
  167. Codec ID                                 : S_HDMV/PGS
  168. Codec ID/Info                            : Picture based subtitle format used on BDs/HD-DVDs
  169. Duration                                 : 2 h 7 min
  170. Bit rate                                 : 59.4 kb/s
  171. Count of elements                        : 3750
  172. Stream size                              : 54.1 MiB (0%)
  173. Title                                    : CHT&ENG
  174. Language                                 : Chinese
  175. Default                                  : Yes
  176. Forced                                   : No
  177. Menu
  178. 00:00:00.000                             : en:第 01 章
  179. 00:06:35.186                             : en:第 02 章
  180. 00:17:06.359                             : en:第 03 章
  181. 00:22:09.620                             : en:第 04 章
  182. 00:29:42.072                             : en:第 05 章
  183. 00:36:18.301                             : en:第 06 章
  184. 00:46:50.016                             : en:第 07 章
  185. 00:53:11.480                             : en:第 08 章
  186. 00:57:57.391                             : en:第 09 章
  187. 01:07:31.714                             : en:第 10 章
  188. 01:14:27.129                             : en:第 11 章
  189. 01:22:28.318                             : en:第 12 章
  190. 01:30:10.864                             : en:第 13 章
  191. 01:36:05.134                             : en:第 14 章
  192. 01:43:25.449                             : en:第 15 章
  193. 01:53:45.402                             : en:第 16 章
  194. 02:06:04.265                             : en:第 17 章
复制代码




TAGS 剧情 喜剧 运动 /

磁力链:
  • magnet:?xt=urn:btih:E0D8E819BA79B4D0953606D9F52ECC4B1F29F541
上传的附件:
BT9527电影天堂 1、BT9527电影天堂提供的BT文件均来源于互联网抓取,只供网友学习交流、技术提升使用。
2、我们遵守BitTorrent点对点协议原则,任何版权问题请联系原资源发布商,我们不处理任何版权纠纷,谢谢!如有争议请联系邮箱:BT9527#hotmail.com(#换成@)
3、如果您发现某页面或地址有错误,请联系站长邮箱BT9527#hotmail.com(#换成@),我们会尽快处理。您的热心是对BT9527电影天堂最大的支持。
4、本站建议去正规影院观看电影以支持电影行业发展。
最新回复 (0)

你可以在 登录 or 注册 后,对此帖发表评论!

返回
发新帖