异灵灵异2002[国粤英多音轨/简繁英字幕].2002.2001.BluRay.1080p.2Audio.DTS-HD.MA.2.0.x265.10bit-ALT 9.51GB

版主小s 1月前 149

◎译 名 异灵灵异2002 / 异灵灵异-2002

◎片 名 2002

◎年 代 2001

◎产 地 中国香港

◎类 别 喜剧 / 爱情 / 科幻 / 恐怖

◎语 言 粤语

◎上映日期 2001-12-15

◎IMDb链接 https://www.imdb.com/title/tt0294251/

◎豆瓣评分 6.7/10 (8698人评价)

◎豆瓣链接 https://movie.douban.com/subject/1298065/

◎片 长 96分钟

◎导 演 叶伟信 Wilson Yip (id:1274472)

◎编 剧 谷德昭 Vincent Kok (id:1025526)

叶伟信 Wilson Yip (id:1274472)

郭子健 Derek Kwok Chi-kin (id:1274244)

司徒锦源 Kam-Yuen Szeto (id:1298766)

◎演 员 谢霆锋 Nicholas Tse (id:1050053)

冯德伦 Stephen Fung (id:1023278)

罗家英 Kar-Ying Law (id:1108968)

李彩桦 Rain Li (id:1042200)

李灿森 Sam Lee (id:1028522)

方力申 Lik-Sun Fong (id:1171687)

安雅 Anya (id:1005185)

李力持 Lik-Chi Lee (id:1274246)

侯焕玲 Woon Ling Hau (id:1275424)

谷德昭 Vincent Kok (id:1025526)

丹妮拉·格拉翰 Danielle Graham (id:1010865)

谷德昭 Vincent Kok (id:1025526)

韦启良 Yee-Leung Wai (id:1300261)

潘恒生 Hang-Sang Poon (id:1294721)

张嘉辉 Ka-fai Cheung (id:1280620)

麦国强 Kenneth Mak (id:1290782)

曾伯铨 Steven Tsang (id:1310849)

邓汝好 Pat Tang Yu-Ho (id:1403989)

黄庆勋 Danny Wong (id:1400030)

黄宏显 Eddy Wong (id:1302455)

黄宏达 Victor Wong (id:1307421)

邹文怀 Raymond Chow (id:1016883)

◎简 介

警方设立一个名为“2002”的部门,专门对付祸害人间的游魂野鬼。部门内潮(谢霆锋 饰)是拥有阴阳眼的人类,Sam(李灿森 饰)则是个鬼魂,整个部门便由这一人一鬼组成。期间他们遇到了形形式式的加害人类的鬼魂,并一一收复了。后来潮受死去的四婆所托,帮忙照顾住院中的孙女Rain(李彩桦 饰)。潮爱上了医院中的一名护士。但他要专心于Sam一起对付水鬼,这场争斗将决定他们的生死。

◎获奖情况 (共1项)

第21届香港电影金像奖 (2002)

最佳视觉效果(提名)

└──黄宏达 (id:1307421)

  1. ##### MediaInfo ######

  2. General

  3. Unique ID : 216062972431437323972016872010805290022 (0xA28C370045A841C7A18D334E03422426)

  4. Complete name : 2002.2001.BluRay.1080p.2Audio.DTS-HD.MA.2.0.x265.10bit-ALT.mkv

  5. Format : Matroska

  6. Format version : Version 4

  7. File size : 9.51 GiB

  8. Duration : 1 h 36 min

  9. Overall bit rate mode : Variable

  10. Overall bit rate : 14.1 Mb/s

  11. Encoded date : UTC 2022-05-31 09:06:47

  12. Writing application : mkvmerge v49.0.0 ('Sick Of Losing Soulmates') 64-bit

  13. Writing library : libebml v1.4.0 + libmatroska v1.6.1

  14. Video

  15. ID : 1

  16. Format : HEVC

  17. Format/Info : High Efficiency Video Coding

  18. Format profile : Main 10@L5.1@High

  19. Codec ID : V_MPEGH/ISO/HEVC

  20. Duration : 1 h 36 min

  21. Bit rate : 12.4 Mb/s

  22. Width : 1 920 pixels

  23. Height : 1 080 pixels

  24. Display aspect ratio : 16:9

  25. Frame rate mode : Constant

  26. Frame rate : 24.000 FPS

  27. Color space : YUV

  28. Chroma subsampling : 4:2:0

  29. Bit depth : 10 bits

  30. Bits/(Pixel*Frame) : 0.249

  31. Stream size : 8.37 GiB (88%)

  32. Title : HEVC, x265Main10@L5.1@High, 24 fps @ 12384 kbps

  33. Writing library : x265 3.5+36-1f2c8da77:[Windows][GCC 11.2.0][64 bit] 10bit

  34. Encoding settings : cpuid=533541111039 / frame-threads=4 / numa-pools=16 / wpp / no-pmode / no-pme / no-psnr / no-ssim / log-level=2 / input-csp=1 / input-res=1920x1080 / interlace=0 / total-frames=139321 / level-idc=51 / high-tier=1 / uhd-bd=0 / ref=5 / no-allow-non-conformance / no-repeat-headers / annexb / no-aud / no-eob / no-eos / no-hrd / info / hash=0 / no-temporal-layers / open-gop / min-keyint=24 / keyint=240 / gop-lookahead=0 / bframes=6 / b-adapt=2 / b-pyramid / bframe-bias=0 / rc-lookahead=40 / lookahead-slices=0 / NTMzNTQ=uuDQuD2mJt9fsCf / scenecut=40 / no-hist-scenecut / radl=0 / no-splice / no-intra-refresh / ctu=32 / min-cu-size=8 / no-rect / no-amp / max-tu-size=32 / tu-inter-depth=3 / tu-intra-depth=3 / limit-tu=4 / rdoq-level=2 / dynamic-rd=0.00 / no-ssim-rd / signhide / no-tskip / nr-intra=0 / nr-inter=0 / no-constrained-intra / no-strong-intra-smoothing / max-merge=4 / limit-refs=1 / limit-modes / me=3 / subme=4 / merange=25 / temporal-mvp / no-frame-dup / no-hme / weightp / weightb / no-analyze-src-pics / deblock=-3:-3 / no-sao / no-sao-non-deblock / rd=6 / selective-sao=0 / no-early-skip / rskip / no-fast-intra / no-tskip-fast / no-cu-lossless / b-intra / no-splitrd-skip / rdpenalty=0 / psy-rd=2.00 / psy-rdoq=1.00 / no-rd-refine / no-lossless / cbqpoffs=-2 / crqpoffs=-2 / rc=crf / crf=21.5 / qcomp=0.65 / qpstep=4 / stats-write=0 / stats-read=0 / vbv-maxrate=80000 / vbv-bufsize=80000 / vbv-init=0.9 / min-vbv-fullness=50.0 / max-vbv-fullness=80.0 / crf-max=0.0 / crf-min=0.0 / ipratio=1.40 / pbratio=1.30 / aq-mode=2 / aq-strength=0.85 / cutree / zone-count=0 / no-strict-cbr / qg-size=32 / no-rc-grain / qpmax=69 / qpmin=0 / no-const-vbv / sar=1 / overscan=0 / videoformat=5 / range=0 / colorprim=1 / transfer=1 / colormatrix=1 / chromaloc=0 / display-window=0 / cll=0,0 / min-luma=0 / max-luma=1023 / log2-max-poc-lsb=8 / vui-timing-info / vui-hrd-info / slices=1 / no-opt-qp-pps / no-opt-ref-list-length-pps / no-multi-pass-opt-rps / scenecut-bias=0.05 / hist-threshold=0.03 / no-opt-cu-delta-qp / no-aq-motion / no-hdr10 / no-hdr10-opt / no-dhdr10-opt / no-idr-recovery-sei / analysis-reuse-level=0 / analysis-save-reuse-level=0 / analysis-load-reuse-level=0 / scale-factor=0 / refine-intra=0 / refine-inter=0 / refine-mv=1 / refine-ctu-distortion=0 / no-limit-sao / ctu-info=0 / no-lowpass-dct / refine-analysis-type=0 / copy-pic=1 / max-ausize-factor=1.0 / no-dynamic-refine / no-single-sei / no-hevc-aq / no-svt / no-field / qp-adaptation-range=1.00 / scenecut-aware-qp=0conformance-window-offsets / right=0 / bottom=0 / NTMzNTQ= / decoder-max-rate=0 / no-vbv-live-multi-pass

  35. Language : English

  36. Default : Yes

  37. Forced : No

  38. Color range : Limited

  39. Color primaries : BT.709

  40. Transfer characteristics : BT.709

  41. Matrix coefficients : BT.709

  42. Audio #1

  43. ID : 2

  44. Format : DTS XLL

  45. Format/Info : Digital Theater Systems

  46. Commercial name : DTS-HD Master Audio

  47. Codec ID : A_DTS

  48. Duration : 1 h 36 min

  49. Bit rate mode : Variable

  50. Bit rate : 807 kb/s

  51. Channel(s) : 2 channels

  52. Channel layout : L R

  53. Sampling rate : 48.0 kHz

  54. Frame rate : 93.750 FPS (512 SPF)

  55. Bit depth : 16 bits

  56. Compression mode : Lossless

  57. Stream size : 558 MiB (6%)

  58. Title : Cantonese DTS-HD Master Audio 2.0 @ 808 kbps

  59. Language : Chinese

  60. Default : Yes

  61. Forced : No

  62. Audio #2

  63. ID : 3

  64. Format : DTS XLL

  65. Format/Info : Digital Theater Systems

  66. Commercial name : DTS-HD Master Audio

  67. Codec ID : A_DTS

  68. Duration : 1 h 36 min

  69. Bit rate mode : Variable

  70. Bit rate : 803 kb/s

  71. Channel(s) : 2 channels

  72. Channel layout : L R

  73. Sampling rate : 48.0 kHz

  74. Frame rate : 93.750 FPS (512 SPF)

  75. Bit depth : 16 bits

  76. Compression mode : Lossless

  77. Stream size : 555 MiB (6%)

  78. Title : Mandarin DTS-HD Master Audio 2.0 @ 804 kbps

  79. Language : Chinese

  80. Default : No

  81. Forced : No

  82. Text #1

  83. ID : 4

  84. Format : PGS

  85. Codec ID : S_HDMV/PGS

  86. Codec ID/Info : Picture based subtitle format used on BDs/HD-DVDs

  87. Duration : 1 h 32 min

  88. Bit rate : 27.9 kb/s

  89. Count of elements : 1596

  90. Stream size : 18.5 MiB (0%)

  91. Title : Cht/SUP 原盘繁体

  92. Language : Chinese

  93. Default : No

  94. Forced : No

  95. Text #2

  96. ID : 5

  97. Format : PGS

  98. Codec ID : S_HDMV/PGS

  99. Codec ID/Info : Picture based subtitle format used on BDs/HD-DVDs

  100. Duration : 1 h 32 min

  101. Bit rate : 27.3 kb/s

  102. Count of elements : 1596

  103. Stream size : 18.2 MiB (0%)

  104. Title : Chs/SUP 原盘简体

  105. Language : Chinese

  106. Default : Yes

  107. Forced : No

  108. Text #3

  109. ID : 6

  110. Format : PGS

  111. Codec ID : S_HDMV/PGS

  112. Codec ID/Info : Picture based subtitle format used on BDs/HD-DVDs

  113. Duration : 1 h 32 min

  114. Bit rate : 25.6 kb/s

  115. Count of elements : 1596

  116. Stream size : 17.0 MiB (0%)

  117. Title : Eng/SUP

  118. Language : English

  119. Default : No

  120. Forced : No

  121. Menu

  122. 00:00:00.000 : en:第 01 章

  123. 00:06:58.458 : en:第 02 章

  124. 00:14:08.542 : en:第 03 章

  125. 00:23:42.583 : en:第 04 章

  126. 00:32:22.083 : en:第 05 章

  127. 00:40:03.250 : en:第 06 章

  128. 00:49:33.083 : en:第 07 章

  129. 00:55:44.833 : en:第 08 章

  130. 01:03:31.583 : en:第 09 章

  131. 01:11:48.250 : en:第 10 章

  132. 01:19:46.250 : en:第 11 章

  133. 01:33:47.250 : en:第 12 章


复制代码


TAGS 恐怖 科幻 喜剧 爱情 /

磁力链:
  • magnet:?xt=urn:btih:0BFC05E31892EF2D682405D727A7D057F4CE1FBF
上传的附件:
BT9527电影天堂 1、BT9527电影天堂提供的BT文件均来源于互联网抓取,只供网友学习交流、技术提升使用。
2、我们遵守BitTorrent点对点协议原则,任何版权问题请联系原资源发布商,我们不处理任何版权纠纷,谢谢!如有争议请联系邮箱:BT9527#hotmail.com(#换成@)
3、如果您发现某页面或地址有错误,请联系站长邮箱BT9527#hotmail.com(#换成@),我们会尽快处理。您的热心是对BT9527电影天堂最大的支持。
4、本站建议去正规影院观看电影以支持电影行业发展。
最新回复 (0)

你可以在 登录 or 注册 后,对此帖发表评论!

返回
发新帖