地心抢险记[中文字幕].The.Core.2003.2160p.STAN.WEB-DL.x265.10bit.HDR.DTS-HD.MA.5.1-NOGRP 16.28GB

版主小s 28天前 105

◎译 名 地心抢险记 / 地心末日 / 地心浩劫 / 地心毁灭

◎片 名 The Core

◎年 代 2003

◎产 地 美国 / 德国 / 加拿大 / 英国 / 意大利 / 法国

◎类 别 动作 / 科幻 / 冒险

◎语 言 英语 / 法语

◎上映日期 2003-06-27(中国大陆) / 2003-03-28(美国)

◎IMDb链接 https://www.imdb.com/title/tt0298814/

◎豆瓣评分 6.8/10 (25795人评价)

◎豆瓣链接 https://movie.douban.com/subject/1300092/

◎片 长 135 分钟

◎导 演 乔恩·阿米尔 Jon Amiel (id:1045202)

◎编 剧 约翰·罗杰斯 John Rogers (id:1295917)

◎演 员 艾伦·艾克哈特 Aaron Eckhart (id:1053577)

希拉里·斯万克 Hilary Swank (id:1054411)

德尔罗伊·林多 Delroy Lindo (id:1040621)

斯坦利·图齐 Stanley Tucci (id:1040517)

DJ·考尔斯 DJ Qualls (id:1017958)

理查德·詹金斯 Richard Jenkins (id:1048145)

切基·卡尤 Tchéky Karyo (id:1027887)

布鲁斯·格林伍德 Bruce Greenwood (id:1025206)

阿尔法·伍达德 Alfre Woodard (id:1041159)

克里斯托弗·谢尔 Christopher Shyer (id:1322266)

雷·加莱蒂 Ray Galletti (id:1093063)

雷克哈·莎尔玛 Rekha Sharma (id:1327186)

Tom Scholte Tom Scholte (id:1337389)

艾琳·佩德 Eileen Pedde (id:1386074)

格伦·莫肖尔 Glenn Morshower (id:1048193)

安东尼·哈里森 Anthony Harrison (id:1094213)

妮可·勒鲁 Nicole Leroux (id:1116857)

弗雷德·埃瓦努伊克 Fred Ewanuick (id:1187253)

赫罗斯加·马修斯 Hrothgar Mathews (id:1115748)

Shawn Green Shawn Green (id:1175972)

詹妮弗·斯宾塞 Jennifer Spence (id:1150933)

马特·温斯顿 Matt Winston (id:1165317)

Laurie Murdoch Laurie Murdoch (id:1055108)

Lenie Scoffié Lenie Scoffié (id:1139763)

Robert Manitopyes Robert Manitopyes (id:1170932)

Alejandro Abellan Alejandro Abellan (id:1054572)

Benjamin Barton (id:1256877)

Jeffrey Gold Jeffrey Gold (id:1193167)

Angelica Hayden Angelica Hayden (id:1096470)

Alec Medlock Alec Medlock (id:1126116)

Dan Olivo Dan Olivo (id:1180476)

阿隆索·奥亚祖恩 Alonso Oyarzun (id:1130753)

Priscilla Poland (id:1238960)

Ryan Poland (id:1237821)

Dion Johnstone Dion Johnstone (id:1113368)

万娜·邦塔 Vanna Bonta (id:1062470)

肖恩·拜利 Sean Bailey (id:1277700)

克里斯托弗·杨 Christopher Young (id:1048309)

John Lindley John Lindley (id:1290080)

特里·罗林斯 Terry Rawlings (id:1295281)

德博拉·阿奎拉 Deborah Aquila (id:1277347)

玛丽·特里西亚·伍德 Mary Tricia Wood (id:1165846)

菲利普·哈里森 Philip Harrison (id:1286141)

Andrew Neskoromny Andrew Neskoromny (id:1293058)

丹尼尔·J·莱斯特 Daniel J. Lester (id:1276312)

Toby Lindala Toby Lindala (id:1290072)

Stan Edmonds Stan Edmonds (id:1081376)

Jessica Rain Jessica Rain (id:1295144)

伊凡娜·普里莫拉克 Ivana Primorac (id:1294917)

Angelina P. Cameron Angelina P. Cameron (id:1054703)

杰罗姆·波伦斯坦 Jerome Borenstein (id:1055644)

Andrew Ward Andrew Ward (id:1166225)

Michele Ziegler Michele Ziegler (id:1301729)

Alessio Spinelli Alessio Spinelli (id:1180780)

Buck Deachman Buck Deachman (id:1054759)

杰森·布斯 Jason Booth (id:1176425)

Brian Hoven Brian Hoven (id:1184530)

Andrew Shuford Andrew Shuford (id:1187488)

梅利莎·贝斯特 Melissa Best (id:1189596)

László Seb? László Seb? (id:1190551)

折笠明 Akira Orikasa (id:1198934)

贾斯汀·琼斯 Justin Jones (id:1199192)

肖恩·康拉德 Sean Konrad (id:1203962)

达伦·沃尔 Darren Wall (id:1219531)

Tim Kings-Lynne (id:1220000)

Ben Paschke Ben Paschke (id:1183615)

小吉恩·沃伦 Gene Warren Jr. (id:1300455)

K. Susan Thurmond K. Susan Thurmond (id:1156327)

Jason Young Jason Young (id:1160951)

Gabrielle Wallack Gabrielle Wallack (id:1161412)

Jason Wardle Jason Wardle (id:1163471)

乔治·泰勒 George Taylor (id:1170370)

Katie Holland Katie Holland (id:1170767)

A.J. Calomay A.J. Calomay (id:1174047)

Russell Allen Russell Allen (id:1175834)

兰德尔·肖尔 Randal Shore (id:1176088)

Karl Denham Karl Denham (id:1276483)

Scott Beverly Scott Beverly (id:1278564)

蒂姆·克罗斯比 Tim Crosbie (id:1281511)

乔尔·梅里特 Joel Merritt (id:1291890)

Glenn Neufeld Glenn Neufeld (id:1293068)

马克·拉塞尔 Mark Russell (id:1296350)

John E. Sasaki John E. Sasaki (id:1296724)

Michael Shea Michael Shea (id:1297365)

Wes Takahashi Wes Takahashi (id:1298841)

大卫·埃布纳 David Ebner (id:1302384)

Michael D. Leone Michael D. Leone (id:1304265)

克林特·华莱士 Clint Wallace (id:1305204)

马米·麦卡尔 Mamie McCall (id:1291435)

丹·考夫曼 Dan Kaufman (id:1288219)

杰米·迪克森 Jamie Dixon (id:1282492)

Forest Fischer Forest Fischer (id:1283766)

Scott Gordon Scott Gordon (id:1285195)

Richard O. Helmer Richard O. Helmer (id:1286398)

埃里克·亨利 Erik Henry (id:1286464)

伊恩·亨特 Ian Hunter (id:1287177)

Leigh-Alexandra Jacob Leigh-Alexandra Jacob (id:1287495)

肯尼思·琼斯 Kenneth Jones (id:1287876)

Les G. Jones Les G. Jones (id:1287881)

Adam Paschke Adam Paschke (id:1307929)

Ivan DeWolf Ivan DeWolf (id:1089956)

Gene Warren III Gene Warren III (id:1013356)

罗布·加德纳 Robb Gardner (id:1091742)

Mark Breakspear Mark Breakspear (id:1051779)

Kurt E. Soderling Kurt E. Soderling (id:1001382)

Gilbert De La Garza Gilbert De La Garza (id:1079615)

肯特·埃斯特普 Kent Estep (id:1079550)

Gregory L. McMurry Gregory L. McMurry (id:1001651)

克里斯·邦德 Chris Bond (id:1001899)

Tony Clark Tony Clark (id:1071201)

迈克尔·乔伊斯 Michael Joyce (id:1008348)

Gary Jackemuk Gary Jackemuk (id:1054895)

萨德·贝尔 Thad Beier (id:1017285)

Richard 'Dr.' Baily Richard 'Dr.' Baily (id:1006335)

John Cassella John Cassella (id:1072146)

Richard A. Payne Richard A. Payne (id:1034628)

托尼·马加莱塔 Tony Magaletta (id:1124827)

Richard Liukis Richard Liukis (id:1117730)

David R. Hardberger David R. Hardberger (id:1006420)

维多利亚·阿隆索 Victoria Alonso (id:1037447)

◎简 介

某天,世界各地接连出现奇怪现象:安装心脏起搏器的病人突然暴亡、鸽子迷失方向四处乱撞、金门大桥断裂、罗马竞技场遭到密集雷电袭击……一时间,人类陷入前所未有的恐慌,似乎恐怖的世界末日就在眼前。各国政府及军队紧急动员,急切找到这一连串灾难发生的原因。

在这关键时刻,地质物理学家乔许·凯斯(艾伦·艾克哈特 Aaron Eckhart 饰)探明真相,原来地核因某种未知的原因停止转动,导致磁场消失。为了拯救人类和地球,乔许以及蕾贝卡·柴德(希拉里·斯万克 Hilary Swank 饰)、罗伯特·艾维森(布鲁斯·格林伍德 Bruce Greenwood 饰)等专家组成一支救援小组,共同前往地球中心实行艰巨而充满危险的拯救任务。人类的命运命悬一线……

  1. Video

  2. ID : 1

  3. Format : HEVC

  4. Format/Info : High Efficiency Video Coding

  5. Format profile : Main 10@L5@High

  6. HDR format : SMPTE ST 2086, HDR10 compatible

  7. Codec ID : V_MPEGH/ISO/HEVC

  8. Duration : 2 h 14 min

  9. Bit rate : 14.4 Mb/s

  10. Width : 3 840 pixels

  11. Height : 2 160 pixels

  12. Display aspect ratio : 16:9

  13. Frame rate mode : Constant

  14. Frame rate : 23.976 (24000/1001/53354) FPS

  15. Color space : YUV

  16. Chroma subsampling : 4:2:0

  17. Bit depth : 10 bits

  18. Bits/(Pixel*Frame) : 0.072

  19. Stream size : 13.5 GiB (83%)

  20. Default : Yes

  21. Forced : No

  22. Color range : Limited

  23. Color primaries : BT.2020

  24. Transfer characteristics : PQ

  25. Matrix coefficients : BT.2020 non-constant

  26. Mastering display color primaries : Display P3

  27. Mastering display luminance : min: 0.0050 cd/m2, max: 1000 cd/m2

  28. Maximum Content Light Level : 4133 cd/m2

  29. Maximum Frame-Average Light Level : 878 cd/m2


  30. Audio #1

  31. ID : 2

  32. Format : DTS XLL

  33. Format/Info : Digital Theater Systems

  34. Commercial name : DTS-HD Master Audio

  35. Codec ID : A_DTS

  36. Duration : 2 h 14 min

  37. Bit rate mode : Variable

  38. Bit rate : 2 514 kb/s

  39. Channel(s) : 6 channels

  40. Channel layout : C L R Ls Rs LFE

  41. Sampling rate : 48.0 kHz

  42. Frame rate : 93.750 FPS (512 SPF)

  43. Bit depth : 24 bits

  44. Compression mode : Lossless

  45. Delay relative to video : 7 ms

  46. Stream size : 2.37 GiB (15%)

  47. Title : DTS-HD MA 5.1

  48. Language : English

  49. Default : Yes

  50. Forced : No


  51. Audio #2

  52. ID : 3

  53. Format : E-AC-3

  54. Format/Info : Enhanced AC-3

  55. Commercial name : Dolby Digital Plus

  56. Codec ID : A_EAC3

  57. Duration : 2 h 14 min

  58. Bit rate mode : Constant

  59. Bit rate : 384 kb/s

  60. Channel(s) : 6 channels

  61. Channel layout : L R C LFE Ls Rs

  62. Sampling rate : 48.0 kHz

  63. Frame rate : 31.250 FPS (1536 SPF)

  64. Compression mode : Lossy

  65. Stream size : 371 MiB (2%)

  66. Language : English

  67. Service kind : Complete Main

  68. Default : No

  69. Forced : No


  70. Text #1

  71. ID : 4

  72. Format : UTF-8

  73. Codec ID : S_TEXT/UTF8

  74. Codec ID/Info : UTF-8 Plain Text

  75. Duration : 2 h 7 min

  76. Bit rate : 63 b/s

  77. Count of elements : 1773

  78. Stream size : 59.2 KiB (0%)

  79. Language : English

  80. Default : Yes

  81. Forced : No


  82. Text #2

  83. ID : 5

  84. Format : UTF-8

  85. Codec ID : S_TEXT/UTF8

  86. Codec ID/Info : UTF-8 Plain Text

  87. Duration : 2 h 9 min

  88. Bit rate : 67 b/s

  89. Count of elements : 1945

  90. Stream size : 63.4 KiB (0%)

  91. Title : SDH

  92. Language : English

  93. Default : No

  94. Forced : No


  95. Text #3

  96. ID : 6

  97. Format : UTF-8

  98. Codec ID : S_TEXT/UTF8

  99. Codec ID/Info : UTF-8 Plain Text

  100. Duration : 2 h 14 min

  101. Bit rate : 43 b/s

  102. Count of elements : 1363

  103. Stream size : 42.6 KiB (0%)

  104. Title : francais

  105. Language : French

  106. Default : No

  107. Forced : No


  108. Text #4

  109. ID : 7

  110. Format : UTF-8

  111. Codec ID : S_TEXT/UTF8

  112. Codec ID/Info : UTF-8 Plain Text

  113. Duration : 2 h 14 min

  114. Bit rate : 53 b/s

  115. Count of elements : 1501

  116. Stream size : 52.8 KiB (0%)

  117. Title : Deutsch

  118. Language : German

  119. Default : No

  120. Forced : No


  121. Text #5

  122. ID : 8

  123. Format : UTF-8

  124. Codec ID : S_TEXT/UTF8

  125. Codec ID/Info : UTF-8 Plain Text

  126. Duration : 2 h 14 min

  127. Bit rate : 58 b/s

  128. Count of elements : 1546

  129. Stream size : 57.5 KiB (0%)

  130. Title : Espanol

  131. Language : Spanish

  132. Default : No

  133. Forced : No


  134. Text #6

  135. ID : 9

  136. Format : UTF-8

  137. Codec ID : S_TEXT/UTF8

  138. Codec ID/Info : UTF-8 Plain Text

  139. Duration : 2 h 4 min

  140. Bit rate : 54 b/s

  141. Count of elements : 1334

  142. Stream size : 49.4 KiB (0%)

  143. Title : Italiano

  144. Language : Italian

  145. Default : No

  146. Forced : No


  147. Text #7

  148. ID : 10

  149. Format : UTF-8

  150. Codec ID : S_TEXT/UTF8

  151. Codec ID/Info : UTF-8 Plain Text

  152. Duration : 2 h 5 min

  153. Bit rate : 50 b/s

  154. Count of elements : 1271

  155. Stream size : 46.6 KiB (0%)

  156. Title : Portugues

  157. Language : Portuguese

  158. Default : No

  159. Forced : No


  160. Text #8

  161. ID : 11

  162. Format : UTF-8

  163. Codec ID : S_TEXT/UTF8

  164. Codec ID/Info : UTF-8 Plain Text

  165. Duration : 2 h 4 min

  166. Bit rate : 50 b/s

  167. Count of elements : 1253

  168. Stream size : 45.8 KiB (0%)

  169. Title : Polski

  170. Language : Polish

  171. Default : No

  172. Forced : No


  173. Text #9

  174. ID : 12

  175. Format : UTF-8

  176. Codec ID : S_TEXT/UTF8

  177. Codec ID/Info : UTF-8 Plain Text

  178. Duration : 2 h 13 min

  179. Bit rate : 54 b/s

  180. Count of elements : 1544

  181. Stream size : 53.5 KiB (0%)

  182. Title : Dansk

  183. Language : Danish

  184. Default : No

  185. Forced : No


  186. Text #10

  187. ID : 13

  188. Format : UTF-8

  189. Codec ID : S_TEXT/UTF8

  190. Codec ID/Info : UTF-8 Plain Text

  191. Duration : 2 h 13 min

  192. Bit rate : 49 b/s

  193. Count of elements : 1459

  194. Stream size : 48.6 KiB (0%)

  195. Title : Suomi

  196. Language : Finnish

  197. Default : No

  198. Forced : No


  199. Text #11

  200. ID : 14

  201. Format : UTF-8

  202. Codec ID : S_TEXT/UTF8

  203. Codec ID/Info : UTF-8 Plain Text

  204. Duration : 2 h 13 min

  205. Bit rate : 51 b/s

  206. Count of elements : 1545

  207. Stream size : 50.9 KiB (0%)

  208. Title : Norsk

  209. Language : Norwegian

  210. Default : No

  211. Forced : No


  212. Text #12

  213. ID : 15

  214. Format : UTF-8

  215. Codec ID : S_TEXT/UTF8

  216. Codec ID/Info : UTF-8 Plain Text

  217. Duration : 2 h 13 min

  218. Bit rate : 56 b/s

  219. Count of elements : 1519

  220. Stream size : 55.2 KiB (0%)

  221. Title : Svenska

  222. Language : Swedish

  223. Default : No

  224. Forced : No


  225. Text #13

  226. ID : 16

  227. Format : UTF-8

  228. Codec ID : S_TEXT/UTF8

  229. Codec ID/Info : UTF-8 Plain Text

  230. Duration : 2 h 5 min

  231. Bit rate : 53 b/s

  232. Count of elements : 1252

  233. Stream size : 48.7 KiB (0%)

  234. Title : Turkshh

  235. Language : Turkish

  236. Default : No

  237. Forced : No


  238. Text #14

  239. ID : 17

  240. Format : UTF-8

  241. Codec ID : S_TEXT/UTF8

  242. Codec ID/Info : UTF-8 Plain Text

  243. Duration : 2 h 6 min

  244. Bit rate : 108 b/s

  245. Count of elements : 1613

  246. Stream size : 100 KiB (0%)

  247. Title : Russian

  248. Language : Russian

  249. Default : No

  250. Forced : No


  251. Text #15

  252. ID : 18

  253. Format : UTF-8

  254. Codec ID : S_TEXT/UTF8

  255. Codec ID/Info : UTF-8 Plain Text

  256. Duration : 2 h 5 min

  257. Bit rate : 85 b/s

  258. Count of elements : 1272

  259. Stream size : 78.3 KiB (0%)

  260. Title : Arabic

  261. Language : Arabic

  262. Default : No

  263. Forced : No


  264. Text #16

  265. ID : 19

  266. Format : UTF-8

  267. Codec ID : S_TEXT/UTF8

  268. Codec ID/Info : UTF-8 Plain Text

  269. Duration : 2 h 13 min

  270. Bit rate : 79 b/s

  271. Count of elements : 1692

  272. Stream size : 77.8 KiB (0%)

  273. Title : Hebrew

  274. Language : Hebrew

  275. Default : No

  276. Forced : No


  277. Text #17

  278. ID : 20

  279. Format : UTF-8

  280. Codec ID : S_TEXT/UTF8

  281. Codec ID/Info : UTF-8 Plain Text

  282. Duration : 2 h 13 min

  283. Bit rate : 137 b/s

  284. Count of elements : 1593

  285. Stream size : 135 KiB (0%)

  286. Title : Hindi

  287. Language : Hindi

  288. Default : No

  289. Forced : No


  290. Text #18

  291. ID : 21

  292. Format : UTF-8

  293. Codec ID : S_TEXT/UTF8

  294. Codec ID/Info : UTF-8 Plain Text

  295. Duration : 2 h 4 min

  296. Bit rate : 176 b/s

  297. Count of elements : 1612

  298. Stream size : 161 KiB (0%)

  299. Title : Telugu

  300. Language : Telugu

  301. Default : No

  302. Forced : No


  303. Text #19

  304. ID : 22

  305. Format : UTF-8

  306. Codec ID : S_TEXT/UTF8

  307. Codec ID/Info : UTF-8 Plain Text

  308. Duration : 2 h 6 min

  309. Bit rate : 151 b/s

  310. Count of elements : 1615

  311. Stream size : 141 KiB (0%)

  312. Title : Tamil

  313. Language : Tamil

  314. Default : No

  315. Forced : No


  316. Text #20

  317. ID : 23

  318. Format : UTF-8

  319. Codec ID : S_TEXT/UTF8

  320. Codec ID/Info : UTF-8 Plain Text

  321. Duration : 2 h 5 min

  322. Bit rate : 39 b/s

  323. Count of elements : 1243

  324. Stream size : 36.6 KiB (0%)

  325. Title : Simplified Chinese

  326. Language : Chinese

  327. Default : No

  328. Forced : No


  329. Text #21

  330. ID : 24

  331. Format : UTF-8

  332. Codec ID : S_TEXT/UTF8

  333. Codec ID/Info : UTF-8 Plain Text

  334. Duration : 2 h 4 min

  335. Bit rate : 39 b/s

  336. Count of elements : 1242

  337. Stream size : 36.3 KiB (0%)

  338. Title : Traditional Chinese

  339. Language : Chinese

  340. Default : No

  341. Forced : No


  342. Text #22

  343. ID : 25

  344. Format : UTF-8

  345. Codec ID : S_TEXT/UTF8

  346. Codec ID/Info : UTF-8 Plain Text

  347. Duration : 2 h 4 min

  348. Bit rate : 45 b/s

  349. Count of elements : 1522

  350. Stream size : 41.8 KiB (0%)

  351. Title : Japanese

  352. Language : Japanese

  353. Default : No

  354. Forced : No


  355. Text #23

  356. ID : 26

  357. Format : UTF-8

  358. Codec ID : S_TEXT/UTF8

  359. Codec ID/Info : UTF-8 Plain Text

  360. Duration : 2 h 4 min

  361. Bit rate : 54 b/s

  362. Count of elements : 1268

  363. Stream size : 49.9 KiB (0%)

  364. Title : Korean

  365. Language : Korean

  366. Default : No

  367. Forced : No


  368. Text #24

  369. ID : 27

  370. Format : UTF-8

  371. Codec ID : S_TEXT/UTF8

  372. Codec ID/Info : UTF-8 Plain Text

  373. Duration : 2 h 13 min

  374. Bit rate : 55 b/s

  375. Count of elements : 1591

  376. Stream size : 54.3 KiB (0%)

  377. Title : Indonesian

  378. Language : Indonesian

  379. Default : No

  380. Forced : No


  381. Menu

  382. 00:00:00.000 : en:1. Unexplained Deaths

  383. 00:07:12.807 : en:2. Frenzied Birds

  384. 00:11:08.376 : en:3. Endeavor Landing

  385. 00:18:15.260 : en:4. Government Secrets

  386. 00:27:57.342 : en:5. Unobtainium

  387. 00:32:53.972 : en:6. Help From the Rat

  388. 00:35:58.489 : en:7. The Crew

  389. 00:40:12.993 : en:8. Preparing for the Mission

  390. 00:47:26.760 : en:9. Superstorm

  391. 00:50:08.463 : en:10. Virgil Is Launched

  392. 01:01:19.425 : en:11. Giant Gem Bubble

  393. 01:11:50.264 : en:12. Serge

  394. 01:22:25.899 : en:13. Project Destiny

  395. 01:29:28.196 : en:14. EM Tear

  396. 01:33:43.034 : en:15. Plan D

  397. 01:39:00.643 : en:16. Worth Dying For

  398. 01:44:38.355 : en:17. Stones in the Pond

  399. 01:52:21.109 : en:18. Healing the Earth

  400. 01:58:07.246 : en:19. Saved by Whales

  401. 02:03:57.972 : en:20. Unsung Heroes

  402. 02:06:11.438 : en:21. End Credits

复制代码

  


TAGS 动作 冒险 科幻 /

磁力链:
  • magnet:?xt=urn:btih:4DF1D3C91DC65692CD6EF17E1A909D7B15816959
上传的附件:
BT9527电影天堂 1、BT9527电影天堂提供的BT文件均来源于互联网抓取,只供网友学习交流、技术提升使用。
2、我们遵守BitTorrent点对点协议原则,任何版权问题请联系原资源发布商,我们不处理任何版权纠纷,谢谢!如有争议请联系邮箱:BT9527#hotmail.com(#换成@)
3、如果您发现某页面或地址有错误,请联系站长邮箱BT9527#hotmail.com(#换成@),我们会尽快处理。您的热心是对BT9527电影天堂最大的支持。
4、本站建议去正规影院观看电影以支持电影行业发展。
最新回复 (0)

你可以在 登录 or 注册 后,对此帖发表评论!

返回
发新帖