机械师[共2部合集][简繁英字幕].The.Mechanic.1-2.2011-2016.BluRay.1080p.2Audio.DTS-HD.MA5.1.x265.10bit-ALT 21.48GB

版主小s 1月前 155

◎译 名 机械师2:复活 / 秒速杀机2(港) / 极速秒杀2(台) / 机械师2 / Mechanic 2

◎片 名 Mechanic: Resurrection

◎年 代 2016

◎产 地 美国 / 法国 / 保加利亚 / 德国

◎类 别 动作 / 犯罪

◎语 言 英语 / 葡萄牙语 / 泰语 / 保加利亚语

◎上映日期 2016-10-21(中国大陆) / 2016-08-26(美国)

◎IMDb链接 https://www.imdb.com/title/tt3522806/

◎豆瓣评分 5.7/10 (99429人评价)

◎豆瓣链接 https://movie.douban.com/subject/25825412/

◎片 长 98分钟(美国)

◎导 演 丹尼斯·甘塞尔 Dennis Gansel (id:1027653)

◎编 剧 菲利普·谢尔比 Philip Shelby (id:1348851)

托尼·莫舍 Tony Mosher (id:1309259)

刘易斯-约翰·卡利诺 Lewis John Carlino (id:1014601)

◎演 员 杰森·斯坦森 Jason Statham (id:1049484)

杰西卡·阿尔芭 Jessica Alba (id:1004861)

汤米·李·琼斯 Tommy Lee Jones (id:1047994)

杨紫琼 Michelle Yeoh (id:1022664)

山姆·哈兹尔丁 Sam Hazeldine (id:1332704)

约翰·塞纳迭姆博 John Cenatiempo (id:1074569)

托比·艾丁顿 Toby Eddington (id:1361675)

费米·依鲁福祖 Femi Elufowoju Jr. (id:1361676)

安提欧·昆塔瓦莱 Anteo Quintavalle (id:1361677)

芮塔·彭安 Rhatha Phongam (id:1328945)

邦妮·泽勒巴克 Bonnie Zellerbach (id:1361678)

斯图尔特·索普 Stuart Thorp (id:1361679)

艾利克斯·库则力科 Alex Kuzelicki (id:1361680)

布拉汉姆·艾克巴赫 Brahim Achabbakhe (id:1361681)

托马斯·科维 Thomas Kiwi (id:1361682)

维他亚·潘斯林加姆 Vithaya Pansringarm (id:1328946)

安德鲁·斯特林 Andrew Stehlin (id:1362761)

梅西·塔普提姆通 Maethi Thapthimthong (id:1383639)

尤辛·乌多姆桑蒂 Yothin Udomsanti (id:1383641)

杰弗里·朱利亚诺 Geoffrey Giuliano (id:1093313)

娜塔莉·伯恩 Natalie Burn (id:1341315)

艾伦·波普尔顿 Allan Poppleton (id:1130902)

莱乔·瓦斯列夫 Raicho Vasilev (id:1154553)

托马尔·奥兹 Tomer Oz (id:1343008)

亚伦·布鲁姆菲尔德 Aaron Brumfield (id:1074635)

马克·艾沙姆 Mark Isham (id:1050293)

◎简 介

系列电影《机械师》第一部中,假装死亡的顶级杀手亚瑟(杰森·斯坦森饰)金盆洗手,过着普通人平静的生活。在一桩看似意外的事件中,亚瑟的红颜知己梅(杨紫琼饰)请求亚瑟解救屡屡遭人毒打的神秘女子吉娜(杰西卡·阿尔芭饰),哪料,向来对爱情有免疫的亚瑟,竟与吉娜坠入了爱河,然而他平静的生活也因此被打破。

五年远离是非的生活风平浪静,亚瑟以为自己已经和过去的杀手生涯告别,然而宿命难敌,竟然有人暗中盯上了他,亚瑟的身世之谜也浮出水面。原来,他年幼时和一群孩子被军火商抓去,训练他们玩枪、杀人,难以忍受的亚瑟从军火商手中逃脱,而他的一位小伙伴长大后却成了军火商的接班人,也是影片中的最大反派。

这位反派找到了亚瑟,并绑架了他的挚爱吉娜,要挟他去刺杀三个世界上头号危险人物。为了他和他的爱人能够逃脱,亚瑟被迫再度从事刺客工作,他必须在有限的时间内完成一系列不可能的刺杀任务。

...

  1. 合集文件列表:

  2. 1.Mechanic.Resurrection.2016.BluRay.1080p.TrueHD.Atmos.7.1.x265.10bit-ALT.mkv 8.26GB

  3. 2.The.Mechanic.2011.BluRay.1080p.2Audio.DTS-HD.MA5.1.x265.10bit-ALT.mkv 13.22GB


复制代码

  1. ##### MediaInfo ######

  2. General

  3. Unique ID : 234413303737589195062829229112064937163 (0xB05A5C2FB76DF64C4A112ACE19230CCB)

  4. Complete name : Mechanic.Resurrection.2016.BluRay.1080p.TrueHD.Atmos.7.1.x265.10bit-ALT.mkv

  5. Format : Matroska

  6. Format version : Version 4

  7. File size : 8.26 GiB

  8. Duration : 1 h 38 min

  9. Overall bit rate mode : Variable

  10. Overall bit rate : 12.0 Mb/s

  11. Encoded date : UTC 2020-07-30 07:22:24

  12. Writing application : mkvmerge v48.0.0 ('Fortress Around Your Heart') 64-bit

  13. Writing library : libebml v1.4.0 + libmatroska v1.6.0

  14. Video

  15. ID : 1

  16. Format : HEVC

  17. Format/Info : High Efficiency Video Coding

  18. Format profile : Main 10@L5.1@High

  19. Codec ID : V_MPEGH/ISO/HEVC

  20. Duration : 1 h 38 min

  21. Bit rate : 5 879 kb/s

  22. Width : 1 920 pixels

  23. Height : 806 pixels

  24. Display aspect ratio : 2.40:1

  25. Frame rate mode : Constant

  26. Frame rate : 23.976 (24000/1001/53354) FPS

  27. Color space : YUV

  28. Chroma subsampling : 4:2:0

  29. Bit depth : 10 bits

  30. Bits/(Pixel*Frame) : 0.158

  31. Stream size : 4.05 GiB (49%)

  32. Title : HEVC, x265Main10@L5.1@High, 24/1.001 fps @ 5878 kbps

  33. Writing library : x265 3.3+1-g396395b2b:[Windows][GCC 9.2.0][64 bit] 10bit

  34. Encoding settings : cpuid=533541111039 / frame-threads=5 / numa-pools=44,44 / wpp / pmode / pme / no-psnr / no-ssim / log-level=2 / input-csp=1 / input-res=1920x806 / interlace=0 / total-frames=141913 / level-idc=51 / high-tier=1 / uhd-bd=0 / ref=5 / no-allow-non-conformance / no-repeat-headers / annexb / no-aud / no-hrd / info / hash=0 / no-temporal-layers / open-gop / min-keyint=24 / keyint=240 / gop-lookahead=0 / bframes=6 / b-adapt=2 / b-pyramid / bframe-bias=0 / rc-lookahead=40 / lookahead-slices=0 / NTMzNTQ=uuDQuD2mJt9fsCf / scenecut=40 / hist-scenecut=0 / radl=0 / no-splice / no-intra-refresh / ctu=32 / min-cu-size=8 / no-rect / no-amp / max-tu-size=32 / tu-inter-depth=3 / tu-intra-depth=3 / limit-tu=4 / rdoq-level=2 / dynamic-rd=0.00 / no-ssim-rd / signhide / no-tskip / nr-intra=0 / nr-inter=0 / no-constrained-intra / no-strong-intra-smoothing / max-merge=4 / limit-refs=1 / limit-modes / me=3 / subme=4 / merange=25 / temporal-mvp / no-frame-dup / no-hme / weightp / weightb / no-analyze-src-pics / deblock=-3:-3 / no-sao / no-sao-non-deblock / rd=6 / selective-sao=0 / no-early-skip / rskip / no-fast-intra / no-tskip-fast / no-cu-lossless / b-intra / no-splitrd-skip / rdpenalty=0 / psy-rd=2.00 / psy-rdoq=1.00 / no-rd-refine / no-lossless / cbqpoffs=0 / crqpoffs=0 / rc=crf / crf=17.0 / qcomp=0.65 / qpstep=4 / stats-write=0 / stats-read=0 / vbv-maxrate=80000 / vbv-bufsize=80000 / vbv-init=0.9 / crf-max=0.0 / crf-min=0.0 / ipratio=1.40 / pbratio=1.30 / aq-mode=2 / aq-strength=0.85 / cutree / zone-count=0 / no-strict-cbr / qg-size=32 / no-rc-grain / qpmax=69 / qpmin=0 / no-const-vbv / sar=1 / overscan=0 / videoformat=5 / range=0 / colorprim=1 / transfer=1 / colormatrix=1 / chromaloc=0 / display-window=0 / cll=0,0 / min-luma=0 / max-luma=1023 / log2-max-poc-lsb=8 / vui-timing-info / vui-hrd-info / slices=1 / no-opt-qp-pps / no-opt-ref-list-length-pps / no-multi-pass-opt-rps / scenecut-bias=0.05 / hist-threshold=0.01 / no-opt-cu-delta-qp / no-aq-motion / no-hdr10 / no-hdr10-opt / no-dhdr10-opt / no-idr-recovery-sei / analysis-reuse-level=0 / analysis-save-reuse-level=0 / analysis-load-reuse-level=0 / scale-factor=0 / refine-intra=0 / refine-inter=0 / refine-mv=1 / refine-ctu-distortion=0 / no-limit-sao / ctu-info=0 / no-lowpass-dct / refine-analysis-type=0 / copy-pic=1 / max-ausize-factor=1.0 / no-dynamic-refine / no-single-sei / no-hevc-aq / no-svt / no-field / qp-adaptation-range=1.00 / no-scenecut-aware-qpconformance-window-offsets / right=0 / bottom=0 / NTMzNTQ=

  35. Language : English

  36. Default : Yes

  37. Forced : No

  38. Color range : Limited

  39. Color primaries : BT.709

  40. Transfer characteristics : BT.709

  41. Matrix coefficients : BT.709

  42. Audio #1

  43. ID : 2

  44. Format : MLP FBA 16-ch

  45. Format/Info : Meridian Lossless Packing FBA with 16-channel presentation

  46. Commercial name : Dolby TrueHD with Dolby Atmos

  47. Codec ID : A_TRUEHD

  48. Duration : 1 h 38 min

  49. Bit rate mode : Variable

  50. Bit rate : 5 351 kb/s

  51. Maximum bit rate : 7 938 kb/s

  52. Channel(s) : 8 channels

  53. Channel layout : L R C LFE Ls Rs Lb Rb

  54. Sampling rate : 48.0 kHz

  55. Frame rate : 1 200.000 FPS (40 SPF)

  56. Compression mode : Lossless

  57. Stream size : 3.69 GiB (45%)

  58. Title : English Dolby TrueHD 7.1 (Atmos) @ 5991 kbps

  59. Language : English

  60. Default : Yes

  61. Forced : No

  62. Number of dynamic objects : 15

  63. Bed channel count : 1 channel

  64. Bed channel configuration : LFE

  65. Audio #2

  66. ID : 3

  67. Format : AC-3

  68. Format/Info : Audio Coding 3

  69. Commercial name : Dolby Digital

  70. Codec ID : A_AC3

  71. Duration : 1 h 38 min

  72. Bit rate mode : Constant

  73. Bit rate : 640 kb/s

  74. Channel(s) : 6 channels

  75. Channel layout : L R C LFE Ls Rs

  76. Sampling rate : 48.0 kHz

  77. Frame rate : 31.250 FPS (1536 SPF)

  78. Compression mode : Lossy

  79. Stream size : 452 MiB (5%)

  80. Title : English Dolby 5.1-EX @ 640 kbps

  81. Language : English

  82. Service kind : Complete Main

  83. Default : No

  84. Forced : No

  85. Text #1

  86. ID : 4

  87. Format : PGS

  88. Codec ID : S_HDMV/PGS

  89. Codec ID/Info : Picture based subtitle format used on BDs/HD-DVDs

  90. Duration : 1 h 30 min

  91. Bit rate : 18.2 kb/s

  92. Count of elements : 1278

  93. Stream size : 11.8 MiB (0%)

  94. Title : Eng/SUP

  95. Language : English

  96. Default : No

  97. Forced : No

  98. Text #2

  99. ID : 5

  100. Format : PGS

  101. Codec ID : S_HDMV/PGS

  102. Codec ID/Info : Picture based subtitle format used on BDs/HD-DVDs

  103. Duration : 1 h 33 min

  104. Bit rate : 21.9 kb/s

  105. Count of elements : 1707

  106. Stream size : 14.6 MiB (0%)

  107. Title : Eng/SUP SDH

  108. Language : English

  109. Default : No

  110. Forced : No

  111. Text #3

  112. ID : 6

  113. Format : PGS

  114. Codec ID : S_HDMV/PGS

  115. Codec ID/Info : Picture based subtitle format used on BDs/HD-DVDs

  116. Duration : 1 h 33 min

  117. Bit rate : 9 223 b/s

  118. Count of elements : 1714

  119. Stream size : 6.18 MiB (0%)

  120. Title : Chs/SUP 简体

  121. Language : Chinese

  122. Default : Yes

  123. Forced : No

  124. Text #4

  125. ID : 7

  126. Format : PGS

  127. Codec ID : S_HDMV/PGS

  128. Codec ID/Info : Picture based subtitle format used on BDs/HD-DVDs

  129. Duration : 1 h 33 min

  130. Bit rate : 9 638 b/s

  131. Count of elements : 1714

  132. Stream size : 6.45 MiB (0%)

  133. Title : Cht/SUP 繁体

  134. Language : Chinese

  135. Default : No

  136. Forced : No

  137. Menu

  138. 00:00:00.000 : en:第 01 章

  139. 00:06:34.852 : en:第 02 章

  140. 00:06:34.936 : en:第 03 章

  141. 00:11:51.252 : en:第 04 章

  142. 00:11:51.335 : en:第 05 章

  143. 00:18:31.193 : en:第 06 章

  144. 00:18:31.276 : en:第 07 章

  145. 00:26:04.813 : en:第 08 章

  146. 00:26:04.896 : en:第 09 章

  147. 00:31:57.457 : en:第 10 章

  148. 00:31:57.540 : en:第 11 章

  149. 00:38:31.183 : en:第 12 章

  150. 00:38:31.267 : en:第 13 章

  151. 00:43:35.612 : en:第 14 章

  152. 00:43:35.696 : en:第 15 章

  153. 00:49:23.126 : en:第 16 章

  154. 00:49:23.210 : en:第 17 章

  155. 00:54:20.298 : en:第 18 章

  156. 00:54:20.381 : en:第 19 章

  157. 01:00:09.772 : en:第 20 章

  158. 01:00:09.856 : en:第 21 章

  159. 01:05:50.362 : en:第 22 章

  160. 01:05:50.446 : en:第 23 章

  161. 01:10:25.345 : en:第 24 章

  162. 01:10:25.429 : en:第 25 章

  163. 01:14:52.279 : en:第 26 章

  164. 01:14:52.362 : en:第 27 章

  165. 01:21:04.776 : en:第 28 章

  166. 01:21:04.859 : en:第 29 章

  167. 01:31:38.701 : en:第 30 章

  168. 01:31:38.784 : en:第 31 章


复制代码


TAGS 动作 犯罪 /

磁力链:
  • magnet:?xt=urn:btih:ED3C056A1672F2381FC040775F72CAEDF3CC1FB1
上传的附件:
BT9527电影天堂 1、BT9527电影天堂提供的BT文件均来源于互联网抓取,只供网友学习交流、技术提升使用。
2、我们遵守BitTorrent点对点协议原则,任何版权问题请联系原资源发布商,我们不处理任何版权纠纷,谢谢!如有争议请联系邮箱:BT9527#hotmail.com(#换成@)
3、如果您发现某页面或地址有错误,请联系站长邮箱BT9527#hotmail.com(#换成@),我们会尽快处理。您的热心是对BT9527电影天堂最大的支持。
4、本站建议去正规影院观看电影以支持电影行业发展。
最新回复 (0)

你可以在 登录 or 注册 后,对此帖发表评论!

返回
发新帖