宾虚[国英多音轨/中英字幕].Ben-Hur.1959.BluRay.1080p.x265.10bit.2Audio-MiniHD 12.10GB

版主小s 4月前 313

◎译 名 宾虚 / 宾汉(台) / 宾虚传

◎片 名 Ben-Hur

◎年 代 1959

◎产 地 美国

◎类 别 剧情 / 动作 / 历史 / 战争 / 冒险

◎语 言 英语

◎上映日期 1959-11-18(美国)

◎IMDb链接 https://www.imdb.com/title/tt0052618/

◎豆瓣评分 8.7/10 (32290人评价)

◎豆瓣链接 https://movie.douban.com/subject/1293150/

◎片 长 213分钟

◎导 演 威廉·惠勒 William Wyler (id:1010691)

◎编 剧 卡尔·顿伯格 Karl Tunberg (id:1033398)

路易斯·华莱士 Lew Wallace (id:1001206)

戈尔·维达尔 Gore Vidal (id:1027965)

Gene Gauntier Gene Gauntier (id:1048635)

◎演 员 查尔顿·赫斯顿 Charlton Heston (id:1027817)

杰克·霍金斯 Jack Hawkins (id:1049902)

哈雅·哈拉里特 Haya Harareet (id:1050253)

史蒂芬·博伊德 Stephen Boyd (id:1009479)

休·格里夫斯 Hugh Griffith (id:1019173)

玛莎·斯考特 Martha Scott (id:1050083)

凯茜·奥唐内 Cathy O'Donnell (id:1013699)

山姆·谢斐 Sam Jaffe (id:1111579)

芬利·柯里 Finlay Currie (id:1070053)

安德鲁·莫瑞尔 André Morell (id:1025420)

陆建艺 Jianyi Lu (id:1334341)

玛琳娜·伯蒂 Marina Berti (id:1028359)

George Relph George Relph (id:1138233)

特伦斯·朗登 Terence Longdon (id:1117751)

弗兰克·思林 Frank Thring (id:1160506)

威廉姆·S·哈特 William S. Hart (id:1037144)

威廉·惠勒 William Wyler (id:1010691)

米克罗斯·罗兹萨 Miklós Rózsa (id:1002885)

哈罗德·迈克尔逊 Harold Michelson (id:1006326)

Gus Agosti Gus Agosti (id:1276854)

赛尔乔·莱昂内 Sergio Leone (id:1013894)

Alberto Cardone Alberto Cardone (id:1280064)

罗伯特·麦克唐纳德 Robert MacDonald (id:1290605)

马修·尤里奇 Matthew Yuricich (id:1301579)

◎简 介

故事发生在古罗马时期,护民官米撒拉(史蒂芬?博伊德 Stephen Boyd 饰)回到了故乡,重遇了儿时的好友宾虚(查尔登?海斯顿 Charlton Heston 饰)。宾虚家是犹太人的豪门,在犹太人中享有相当高的待遇,为了控制犹太人,使他们安份的臣服于古罗马帝国的统治之下,米撒拉希望宾虚帮忙。但宾虚不肯出卖自己的民族,于是两个好友决裂了。随后,米撒拉找了借口治了宾虚一家谋反罪,宾虚被卖到一艘军舰上当奴隶,而他也失去家人们的信息。一次偶然机会,宾虚立了战功,得到了古罗马的皇帝接见,他回到了故乡,也开始了他的复仇之旅!

◎获奖情况 (共16项)

第32届奥斯卡金像奖 (1960)

最佳影片

└──萨姆·津巴利斯特 (id:1001053)

最佳导演

└──威廉·惠勒 (id:1010691)

最佳男主角

└──查尔顿·赫斯顿 (id:1027817)

最佳男配角

└──休·格里夫斯 (id:1019173)

最佳改编剧本(提名)

└──卡尔·顿伯格 (id:1033398)

彩色片最佳摄影

└──罗伯特·瑟蒂斯 (id:1025472)

最佳剪辑

最佳特效

最佳音响

└──富兰克林·米尔顿 (id:1292144)

彩色片最佳艺术指导和布景

彩色片最佳服装设计

└──伊丽莎白·哈芬登 (id:1002018)

剧情/喜剧片最佳配乐

└──米克罗斯·罗兹萨 (id:1002885)

第17届金球奖 (1960)

电影类 最佳剧情片

电影类 最佳导演

└──威廉·惠勒 (id:1010691)

电影类 剧情片最佳男主角(提名)

└──查尔顿·赫斯顿 (id:1027817)

电影类 最佳男配角

└──史蒂芬·博伊德 (id:1009479)

  1. ##### MediaInfo ######

  2. General

  3. Unique ID : 216037680635931261952433403003634471336 (0xA2875804EED4FC95A5E307FEBC3851A8)

  4. Complete name : Ben-Hur.1959.BluRay.1080p.x265.10bit.2Audio-MiniHD.mkv

  5. Format : Matroska

  6. Format version : Version 4

  7. File size : 12.1 GiB

  8. Duration : 3 h 42 min

  9. Overall bit rate : 7 784 kb/s

  10. Encoded date : UTC 2017-08-14 01:16:18

  11. Writing application : mkvmerge v11.0.0 ('Alive') 64bit

  12. Writing library : libebml v1.3.4 + libmatroska v1.4.5

  13. Video

  14. ID : 1

  15. Format : HEVC

  16. Format/Info : High Efficiency Video Coding

  17. Codec ID : V_MPEGH/ISO/HEVC

  18. Duration : 3 h 42 min

  19. Bit rate : 6 702 kb/s

  20. Width : 1 920 pixels

  21. Height : 696 pixels

  22. Display aspect ratio : 2.759

  23. Frame rate mode : Constant

  24. Frame rate : 23.976 (24000/1001/53354) FPS

  25. Bits/(Pixel*Frame) : 0.209

  26. Stream size : 10.4 GiB (86%)

  27. Default : Yes

  28. Forced : No

  29. Audio #1

  30. ID : 2

  31. Format : AC-3

  32. Format/Info : Audio Coding 3

  33. Commercial name : Dolby Digital

  34. Codec ID : A_AC3

  35. Duration : 3 h 42 min

  36. Bit rate mode : Constant

  37. Bit rate : 640 kb/s

  38. Channel(s) : 6 channels

  39. Channel layout : L R C LFE Ls Rs

  40. Sampling rate : 48.0 kHz

  41. Frame rate : 31.250 FPS (1536 SPF)

  42. Compression mode : Lossy

  43. Stream size : 1 018 MiB (8%)

  44. Language : English

  45. Service kind : Complete Main

  46. Default : Yes

  47. Forced : No

  48. Audio #2

  49. ID : 3

  50. Format : AC-3

  51. Format/Info : Audio Coding 3

  52. Commercial name : Dolby Digital

  53. Codec ID : A_AC3

  54. Duration : 3 h 42 min

  55. Bit rate mode : Constant

  56. Bit rate : 384 kb/s

  57. Channel(s) : 6 channels

  58. Channel layout : L R C LFE Ls Rs

  59. Sampling rate : 48.0 kHz

  60. Frame rate : 31.250 FPS (1536 SPF)

  61. Compression mode : Lossy

  62. Stream size : 611 MiB (5%)

  63. Language : Chinese

  64. Service kind : Complete Main

  65. Default : No

  66. Forced : No

  67. Text #1

  68. ID : 4

  69. Format : PGS

  70. Muxing mode : zlib

  71. Codec ID : S_HDMV/PGS

  72. Codec ID/Info : Picture based subtitle format used on BDs/HD-DVDs

  73. Duration : 3 h 35 min

  74. Bit rate : 7 889 b/s

  75. Count of elements : 3380

  76. Stream size : 12.2 MiB (0%)

  77. Language : English

  78. Default : Yes

  79. Forced : No

  80. Text #2

  81. ID : 5

  82. Format : PGS

  83. Muxing mode : zlib

  84. Codec ID : S_HDMV/PGS

  85. Codec ID/Info : Picture based subtitle format used on BDs/HD-DVDs

  86. Duration : 3 h 42 min

  87. Bit rate : 10.1 kb/s

  88. Count of elements : 3274

  89. Stream size : 16.0 MiB (0%)

  90. Language : Chinese

  91. Default : No

  92. Forced : No

  93. Text #3

  94. ID : 6

  95. Format : PGS

  96. Muxing mode : zlib

  97. Codec ID : S_HDMV/PGS

  98. Codec ID/Info : Picture based subtitle format used on BDs/HD-DVDs

  99. Duration : 3 h 42 min

  100. Bit rate : 10.4 kb/s

  101. Count of elements : 3274

  102. Stream size : 16.5 MiB (0%)

  103. Language : Chinese

  104. Default : No

  105. Forced : No

  106. Text #4

  107. ID : 7

  108. Format : PGS

  109. Muxing mode : zlib

  110. Codec ID : S_HDMV/PGS

  111. Codec ID/Info : Picture based subtitle format used on BDs/HD-DVDs

  112. Duration : 3 h 40 min

  113. Bit rate : 13.6 kb/s

  114. Count of elements : 3127

  115. Stream size : 21.4 MiB (0%)

  116. Language : Chinese

  117. Default : No

  118. Forced : No

  119. Text #5

  120. ID : 8

  121. Format : PGS

  122. Muxing mode : zlib

  123. Codec ID : S_HDMV/PGS

  124. Codec ID/Info : Picture based subtitle format used on BDs/HD-DVDs

  125. Duration : 3 h 40 min

  126. Bit rate : 13.8 kb/s

  127. Count of elements : 3127

  128. Stream size : 21.8 MiB (0%)

  129. Language : Chinese

  130. Default : No

  131. Forced : No

  132. Menu

  133. 00:00:00.000 : en:Chapter 01

  134. 00:06:30.390 : en:Chapter 02

  135. 00:11:37.697 : en:Chapter 03

  136. 00:13:45.533 : en:Chapter 04

  137. 00:16:00.960 : en:Chapter 05

  138. 00:17:59.453 : en:Chapter 06

  139. 00:21:36.503 : en:Chapter 07

  140. 00:25:17.515 : en:Chapter 08

  141. 00:28:43.847 : en:Chapter 09

  142. 00:31:20.879 : en:Chapter 10

  143. 00:36:35.651 : en:Chapter 11

  144. 00:40:36.976 : en:Chapter 12

  145. 00:45:12.126 : en:Chapter 13

  146. 00:48:02.087 : en:Chapter 14

  147. 00:51:43.892 : en:Chapter 15

  148. 00:54:29.391 : en:Chapter 16

  149. 00:58:05.482 : en:Chapter 17

  150. 01:01:07.538 : en:Chapter 18

  151. 01:05:41.437 : en:Chapter 19

  152. 01:10:16.378 : en:Chapter 20

  153. 01:14:07.151 : en:Chapter 21

  154. 01:17:23.680 : en:Chapter 22

  155. 01:21:23.461 : en:Chapter 23

  156. 01:24:14.215 : en:Chapter 24

  157. 01:26:19.215 : en:Chapter 25

  158. 01:30:43.855 : en:Chapter 26

  159. 01:34:25.284 : en:Chapter 27

  160. 01:38:33.657 : en:Chapter 28

  161. 01:41:17.154 : en:Chapter 29

  162. 01:45:41.293 : en:Chapter 30

  163. 01:50:22.616 : en:Chapter 31

  164. 01:54:02.710 : en:Chapter 32

  165. 01:58:09.040 : en:Chapter 33

  166. 02:02:30.384 : en:Chapter 34

  167. 02:06:12.147 : en:Chapter 35

  168. 02:10:20.687 : en:Chapter 36

  169. 02:12:48.043 : en:Chapter 37

  170. 02:18:52.365 : en:Chapter 38

  171. 02:21:18.970 : en:Chapter 39

  172. 02:21:54.630 : en:Chapter 01

  173. 02:25:42.232 : en:Chapter 02

  174. 02:30:30.728 : en:Chapter 03

  175. 02:32:43.194 : en:Chapter 04

  176. 02:37:00.701 : en:Chapter 05

  177. 02:40:35.040 : en:Chapter 06

  178. 02:42:35.411 : en:Chapter 07

  179. 02:47:05.097 : en:Chapter 08

  180. 02:50:56.286 : en:Chapter 09

  181. 02:52:33.633 : en:Chapter 10

  182. 02:54:38.133 : en:Chapter 11

  183. 03:00:07.170 : en:Chapter 12

  184. 03:02:23.055 : en:Chapter 13

  185. 03:06:52.533 : en:Chapter 14

  186. 03:10:34.380 : en:Chapter 15

  187. 03:14:29.448 : en:Chapter 16

  188. 03:18:41.158 : en:Chapter 17

  189. 03:24:07.859 : en:Chapter 18

  190. 03:27:20.426 : en:Chapter 19

  191. 03:31:35.556 : en:Chapter 20

  192. 03:34:40.491 : en:Chapter 21

  193. 03:39:26.026 : en:Chapter 22


复制代码


TAGS 动作 冒险 剧情 历史 战争 /

磁力链:
  • magnet:?xt=urn:btih:B64608C866A5B3944708CD2F627F1060D4A63115
上传的附件:
BT9527电影天堂 1、BT9527电影天堂提供的BT文件均来源于互联网抓取,只供网友学习交流、技术提升使用。
2、我们遵守BitTorrent点对点协议原则,任何版权问题请联系原资源发布商,我们不处理任何版权纠纷,谢谢!如有争议请联系邮箱:BT9527#hotmail.com(#换成@)
3、如果您发现某页面或地址有错误,请联系站长邮箱BT9527#hotmail.com(#换成@),我们会尽快处理。您的热心是对BT9527电影天堂最大的支持。
4、本站建议去正规影院观看电影以支持电影行业发展。
最新回复 (0)

你可以在 登录 or 注册 后,对此帖发表评论!

返回
发新帖