审死官[国语音轨/中英字幕].Justice.My.Foot.1992.BluRay.1080p.x265.10bit.2Audio-MiniHD 3.99GB

版主小s 1月前 183

◎译 名 审死官 / 威龙闯天关(台) / Justice, My Foot!

◎片 名 審死官

◎年 代 1992

◎产 地 中国香港

◎类 别 喜剧 / 古装

◎语 言 粤语

◎上映日期 1992-07-02(中国香港)

◎IMDb链接 https://www.imdb.com/title/tt0105385/

◎豆瓣评分 7.9/10 (193768人评价)

◎豆瓣链接 https://movie.douban.com/subject/1305355/

◎片 长 102 分钟

◎导 演 杜琪峰 Johnnie To (id:1160186)

◎编 剧 邵丽琼 Sandy Shaw (id:1321540)

苑琼丹 King-Tan Yuen (id:1274445)

◎演 员 周星驰 Stephen Chow (id:1048026)

梅艳芳 Anita Mui (id:1047976)

吴家丽 Carrie Ng (id:1274241)

吴孟达 Man Tat Ng (id:1016771)

秦沛 Paul Chun (id:1048476)

梁家仁 Ka-Yan Leung (id:1008125)

苑琼丹 King-Tan Yuen (id:1274445)

黄一飞 Yut Fei Wong (id:1301215)

朱咪咪 Mimi Chu (id:1275715)

侯焕玲 Woon Ling Hau (id:1275424)

胡立成 Licheng Hu (id:1331134)

张志平 Chi Ping Chang (id:1364462)

梁心 Hsin Liang (id:1427057)

邓泰和 Tai Wo Tang (id:1394346)

林富伟 Fu-wai Lam (id:1433957)

高雄 Eddy Ko (id:1313798)

曾近荣 Kan-Wing Tsang (id:1329878)

李成昌 Shing-Cheung Lee (id:1315069)

王天林 Tian-lin Wang (id:1041074)

郑家生 Ka Sang Cheung (id:1280593)

艾威 Wei Ai (id:1314143)

曹荣 Wing Cho (id:1315226)

车保罗 Paul Che (id:1315269)

戚其义 Jonathan Chik (id:1313757)

郑君绵 Kwan-Min Cheng (id:1322843)

秦煌 Wong Chun (id:1274570)

方逸华 Mona Fong (id:1283933)

何丽嫦 Lorraine Ho (id:1418364)

胡伟立 Wai Lap Wu (id:1275249)

鲍德熹 Peter Pau (id:1294116)

朱晨杰 Sun-Kit Chu (id:1377189)

刘敏雄 Man Hung Lau (id:1319118)

余家安 Bruce Yu (id:1301555)

程小东 Siu-Tung Ching (id:1280664)

施介强 Gai-Keung Si (id:1356658)

◎简 介

宋世杰(周星驰 饰)是一个清朝时期的著名大状,他出色的口才及能力让他敢于批评衙门的大官,也为很多人伸冤。就算他不满当时官场的腐败黑暗,但他还是收了不少贿赂,部分还是昧心钱,都报应在了自己的儿子上,十多个儿子都养不大。妻子(梅艳芳 饰)为了腹中的孩子,断然要求他就此封笔,不可再做大状。虽然宋世杰极其不愿意,还是答应了妻子的要求。妻子遇到了满肚冤情的寡妇(吴嘉丽 饰),处于对女人的同情,她要求丈夫宋世杰为这名寡妇打官司,因此宋世杰又被迫重出江湖。在为寡妇伸冤的过程中,他再次看到了官场的黑暗,还差点抄家、送命……

◎获奖情况 (共9项)

第29届台北金马影展 (1992)

金马奖 最佳剧情片(提名)

金马奖 最佳男主角(提名)

└──周星驰 (id:1048026)

金马奖 最佳改编剧本(提名)

└──邵丽琼 (id:1321540)

金马奖 最佳原创配乐(提名)

└──胡伟立 (id:1275249)

金马奖 最佳剪辑(提名)

└──朱晨杰 (id:1377189)

第12届香港电影金像奖 (1993)

最佳编剧(提名)

└──邵丽琼 (id:1321540)

最佳男主角(提名)

└──周星驰 (id:1048026)

最佳女主角(提名)

└──梅艳芳 (id:1047976)

最佳服装造型设计(提名)

└──余家安 (id:1301555)

  1. ##### MediaInfo ######

  2. General

  3. Unique ID : 249234307708060499877768858583995169801 (0xBB80C819738F4574B23A14B67CFEBC09)

  4. Complete name : Justice.My.Foot.1992.BluRay.1080p.x265.10bit.2Audio-MiniHD.mkv

  5. Format : Matroska

  6. Format version : Version 4

  7. File size : 3.99 GiB

  8. Duration : 1 h 39 min

  9. Overall bit rate : 5 742 kb/s

  10. Encoded date : UTC 2017-06-09 12:31:46

  11. Writing application : mkvmerge v11.0.0 ('Alive') 64bit

  12. Writing library : libebml v1.3.4 + libmatroska v1.4.5

  13. Video

  14. ID : 1

  15. Format : HEVC

  16. Format/Info : High Efficiency Video Coding

  17. Codec ID : V_MPEGH/ISO/HEVC

  18. Duration : 1 h 39 min

  19. Bit rate : 4 988 kb/s

  20. Width : 1 920 pixels

  21. Height : 1 034 pixels

  22. Display aspect ratio : 1.85:1

  23. Frame rate mode : Constant

  24. Frame rate : 24.000 FPS

  25. Bits/(Pixel*Frame) : 0.105

  26. Stream size : 3.46 GiB (87%)

  27. Default : Yes

  28. Forced : No

  29. Audio #1

  30. ID : 2

  31. Format : AC-3

  32. Format/Info : Audio Coding 3

  33. Commercial name : Dolby Digital

  34. Codec ID : A_AC3

  35. Duration : 1 h 39 min

  36. Bit rate mode : Constant

  37. Bit rate : 320 kb/s

  38. Channel(s) : 2 channels

  39. Channel layout : L R

  40. Sampling rate : 48.0 kHz

  41. Frame rate : 31.250 FPS (1536 SPF)

  42. Compression mode : Lossy

  43. Stream size : 227 MiB (6%)

  44. Language : Chinese

  45. Service kind : Complete Main

  46. Default : Yes

  47. Forced : No

  48. Audio #2

  49. ID : 3

  50. Format : AC-3

  51. Format/Info : Audio Coding 3

  52. Commercial name : Dolby Digital

  53. Codec ID : A_AC3

  54. Duration : 1 h 39 min

  55. Bit rate mode : Constant

  56. Bit rate : 320 kb/s

  57. Channel(s) : 2 channels

  58. Channel layout : L R

  59. Sampling rate : 48.0 kHz

  60. Frame rate : 31.250 FPS (1536 SPF)

  61. Compression mode : Lossy

  62. Stream size : 227 MiB (6%)

  63. Language : Chinese

  64. Service kind : Complete Main

  65. Default : No

  66. Forced : No

  67. Text #1

  68. ID : 4

  69. Format : PGS

  70. Muxing mode : zlib

  71. Codec ID : S_HDMV/PGS

  72. Codec ID/Info : Picture based subtitle format used on BDs/HD-DVDs

  73. Language : Chinese

  74. Default : Yes

  75. Forced : No

  76. Text #2

  77. ID : 5

  78. Format : PGS

  79. Muxing mode : zlib

  80. Codec ID : S_HDMV/PGS

  81. Codec ID/Info : Picture based subtitle format used on BDs/HD-DVDs

  82. Language : English

  83. Default : No

  84. Forced : No

  85. Menu

  86. 00:00:00.000 : en:Chapter 01

  87. 00:09:36.166 : en:Chapter 02

  88. 00:17:01.125 : en:Chapter 03

  89. 00:24:27.791 : en:Chapter 04

  90. 00:36:49.041 : en:Chapter 05

  91. 00:46:42.041 : en:Chapter 06

  92. 00:53:49.125 : en:Chapter 07

  93. 01:00:44.041 : en:Chapter 08

  94. 01:11:30.583 : en:Chapter 09

  95. 01:17:10.125 : en:Chapter 10

  96. 01:21:31.833 : en:Chapter 11

  97. 01:37:28.875 : en:Chapter 12


复制代码


TAGS 喜剧 古装 /

磁力链:
  • magnet:?xt=urn:btih:FC844F265DDAF20B8093F70A5E2ECDA71198B975
上传的附件:
BT9527电影天堂 1、BT9527电影天堂提供的BT文件均来源于互联网抓取,只供网友学习交流、技术提升使用。
2、我们遵守BitTorrent点对点协议原则,任何版权问题请联系原资源发布商,我们不处理任何版权纠纷,谢谢!如有争议请联系邮箱:BT9527#hotmail.com(#换成@)
3、如果您发现某页面或地址有错误,请联系站长邮箱BT9527#hotmail.com(#换成@),我们会尽快处理。您的热心是对BT9527电影天堂最大的支持。
4、本站建议去正规影院观看电影以支持电影行业发展。
最新回复 (0)

你可以在 登录 or 注册 后,对此帖发表评论!

返回
发新帖