完美陌生人[中英字幕].Perfect.Strangers.2016.BluRay.1080p.x265.10bit-MiniHD 4.21GB

版主小s 1月前 201

◎译 名 完美陌生人 / 完美谎情(港) / 波动的信息分享 / 晦星来的那一夜(豆友译名) / 月食来的那一夜(豆友译名) / Perfect Strangers

◎片 名 Perfetti sconosciuti

◎年 代 2016

◎产 地 意大利

◎类 别 剧情 / 喜剧

◎语 言 意大利语

◎上映日期 2018-05-25(中国大陆) / 2016-02-11(意大利)

◎IMDb链接 https://www.imdb.com/title/tt4901306/

◎豆瓣评分 8.5/10 (489110人评价)

◎豆瓣链接 https://movie.douban.com/subject/26614893/

◎片 长 97分钟

◎导 演 保罗·杰诺维塞 Paolo Genovese (id:1023888)

◎编 剧 保罗·杰诺维塞 Paolo Genovese (id:1023888)

菲利波·博洛尼亚 Filippo Bologna (id:1359912)

保罗·克斯泰拉 Paolo Costella (id:1359913)

宝拉·马米妮 Paola Mammini (id:1359914)

罗兰多·拉维洛 Rolando Ravello (id:1330311)

◎演 员 马可·贾利尼 Marco Giallini (id:1094143)

卡夏·斯穆特尼亚克 Kasia Smutniak (id:1022632)

爱德华多·莱奥 Edoardo Leo (id:1045775)

阿尔芭·罗尔瓦赫尔 Alba Rohrwacher (id:1259070)

瓦莱里奥·马斯坦德雷亚 Valerio Mastandrea (id:1005301)

安娜·福列塔 Anna Foglietta (id:1338625)

朱塞佩·巴蒂斯通 Giuseppe Battiston (id:1010007)

贝内黛塔·波尔卡罗利 Benedetta Porcaroli (id:1363080)

伊丽莎白·德·帕罗奥 Elisabetta De Palo (id:1090842)

◎简 介

三对处于各个婚姻阶段的伴侣和一个宅男,七人聚在一起吃晚餐。女主人提议下拍板决定当夜所有人分享每一个电话、每一条短信、邮件的内容,由此许多秘密开始不再是秘密,他们之间的关系也开始发生波动。无数疮痍在这场“坦白局”中被揭开,复杂的男女情感让所有人陷入困局,什么是婚姻感情中最不可触碰的底线?众人遭遇是难言的禁忌还是隐藏的真心,月食过后,谎言能否继续?

◎获奖情况 (共5项)

第3届豆瓣电影年度榜单 (2016)

评分最高的外语电影(提名)

最受关注的非院线电影(提名)

评分最高的欧洲电影(提名)

评分最高的喜剧片

7月最受关注电影(提名)

  1. ##### MediaInfo ######

  2. General

  3. Unique ID : 193743392988584702093841236756759941400 (0x91C19EC5FA1F7606960A6D2A7CC19118)

  4. Complete name : Perfect.Strangers.2016.BluRay.1080p.x265.10bit-MiniHD.mkv

  5. Format : Matroska

  6. Format version : Version 4

  7. File size : 4.21 GiB

  8. Duration : 1 h 36 min

  9. Overall bit rate : 6 253 kb/s

  10. Encoded date : UTC 2017-07-05 05:49:40

  11. Writing application : mkvmerge v11.0.0 ('Alive') 64bit

  12. Writing library : libebml v1.3.4 + libmatroska v1.4.5

  13. Video

  14. ID : 1

  15. Format : HEVC

  16. Format/Info : High Efficiency Video Coding

  17. Codec ID : V_MPEGH/ISO/HEVC

  18. Duration : 1 h 36 min

  19. Bit rate : 5 576 kb/s

  20. Width : 1 920 pixels

  21. Height : 804 pixels

  22. Display aspect ratio : 2.40:1

  23. Frame rate mode : Constant

  24. Frame rate : 24.000 FPS

  25. Bits/(Pixel*Frame) : 0.151

  26. Stream size : 3.75 GiB (89%)

  27. Default : Yes

  28. Forced : No

  29. Audio

  30. ID : 2

  31. Format : AC-3

  32. Format/Info : Audio Coding 3

  33. Commercial name : Dolby Digital

  34. Codec ID : A_AC3

  35. Duration : 1 h 36 min

  36. Bit rate mode : Constant

  37. Bit rate : 640 kb/s

  38. Channel(s) : 6 channels

  39. Channel layout : L R C LFE Ls Rs

  40. Sampling rate : 48.0 kHz

  41. Frame rate : 31.250 FPS (1536 SPF)

  42. Compression mode : Lossy

  43. Delay relative to video : 2 s 0 ms

  44. Stream size : 441 MiB (10%)

  45. Language : Italian

  46. Service kind : Complete Main

  47. Default : Yes

  48. Forced : No

  49. Text #1

  50. ID : 3

  51. Format : PGS

  52. Muxing mode : zlib

  53. Codec ID : S_HDMV/PGS

  54. Codec ID/Info : Picture based subtitle format used on BDs/HD-DVDs

  55. Duration : 1 h 29 min

  56. Bit rate : 20.8 kb/s

  57. Count of elements : 2508

  58. Stream size : 13.3 MiB (0%)

  59. Language : Chinese

  60. Default : Yes

  61. Forced : No

  62. Text #2

  63. ID : 4

  64. Format : PGS

  65. Muxing mode : zlib

  66. Codec ID : S_HDMV/PGS

  67. Codec ID/Info : Picture based subtitle format used on BDs/HD-DVDs

  68. Duration : 1 h 29 min

  69. Bit rate : 18.9 kb/s

  70. Count of elements : 2508

  71. Stream size : 12.1 MiB (0%)

  72. Language : English

  73. Default : No

  74. Forced : No

  75. Menu

  76. 00:00:00.000 : en:Chapter 01

  77. 00:07:15.666 : en:Chapter 02

  78. 00:15:34.916 : en:Chapter 03

  79. 00:21:12.291 : en:Chapter 04

  80. 00:34:39.375 : en:Chapter 05

  81. 00:41:29.958 : en:Chapter 06

  82. 00:53:33.750 : en:Chapter 07

  83. 01:06:50.166 : en:Chapter 08

  84. 01:13:01.583 : en:Chapter 09

  85. 01:20:31.000 : en:Chapter 10

  86. 01:26:34.166 : en:Chapter 11

  87. 01:30:27.125 : en:Chapter 12


复制代码


TAGS 剧情 喜剧 /

磁力链:
  • magnet:?xt=urn:btih:64B1B851FAD374D2ACCD12E18C423D4860636C04
上传的附件:
BT9527电影天堂 1、BT9527电影天堂提供的BT文件均来源于互联网抓取,只供网友学习交流、技术提升使用。
2、我们遵守BitTorrent点对点协议原则,任何版权问题请联系原资源发布商,我们不处理任何版权纠纷,谢谢!如有争议请联系邮箱:BT9527#hotmail.com(#换成@)
3、如果您发现某页面或地址有错误,请联系站长邮箱BT9527#hotmail.com(#换成@),我们会尽快处理。您的热心是对BT9527电影天堂最大的支持。
4、本站建议去正规影院观看电影以支持电影行业发展。
最新回复 (0)

你可以在 登录 or 注册 后,对此帖发表评论!

返回
发新帖