安妮·霍尔[国英多音轨/中英字幕].Annie.Hall.1977.BluRay.1080p.x265.10bit.2Audio-MiniHD 5.49GB

版主小s 1月前 176

◎译 名 安妮·霍尔 / 安妮·荷尔 / 安妮·茜尔 / A Roller Coaster Named Desire / Anhedonia

◎片 名 Annie Hall

◎年 代 1977

◎产 地 美国

◎类 别 剧情 / 喜剧 / 爱情

◎语 言 英语 / 德语

◎上映日期 1977-04-20

◎IMDb链接 https://www.imdb.com/title/tt0075686/

◎豆瓣评分 8.6/10 (94480人评价)

◎豆瓣链接 https://movie.douban.com/subject/1296987/

◎片 长 93 分钟

◎导 演 伍迪·艾伦 Woody Allen (id:1054430)

◎编 剧 马歇尔·布瑞克曼 Marshall Brickman (id:1050491)

伍迪·艾伦 Woody Allen (id:1054430)

◎演 员 伍迪·艾伦 Woody Allen (id:1054430)

黛安·基顿 Diane Keaton (id:1053568)

谢莉·杜瓦尔 Shelley Duvall (id:1010585)

保罗·西蒙 Paul Simon (id:1152050)

卡罗尔·凯恩 Carol Kane (id:1019072)

克里斯托弗·沃肯 Christopher Walken (id:1053574)

西格妮·韦弗 Sigourney Weaver (id:1053569)

马歇尔·麦克卢汉 Marshall McLuhan (id:1124038)

查尔斯·莱文 Charles Levin (id:1123767)

托尼·罗伯茨 Tony Roberts (id:1137881)

杜鲁门·卡波特 Truman Capote (id:1027467)

戈登·威利斯 Gordon Willis (id:1018400)

Ralph Rosenblum Ralph Rosenblum (id:1147226)

杰克·希金斯 Jack Higgins (id:1286592)

◎简 介

喜剧演员艾维·辛格(伍迪·艾伦 Woody Allen 饰)是这样一个人:非常介意自己的犹太人的出身;自认为有童年阴影,看了十六年心理医生没见好转却一直付钱看;有点阿Q精神,但对人生却充满消极;喜欢一直讲无聊的笑话。正因为自身的神经质特质,艾维经历了两次失败的婚姻。

艾维 遇到了安妮(黛安·基顿 Diane Keaton 饰)――一直梦想成为歌星的女孩,两人渐渐堕入爱河。安妮在艾维的帮助下歌唱技巧迅速提高,但她的父母却反对她与艾维来往。

安妮得到了唱片商托尼的注意,获邀前往好莱坞灌录唱片,艾维跟着前往了好莱坞向安妮求婚。

◎获奖情况 (共5项)

第50届奥斯卡金像奖 (1978)

最佳影片

└──查尔斯·H·约菲 (id:1010164)

最佳导演

└──伍迪·艾伦 (id:1054430)

最佳男主角(提名)

└──伍迪·艾伦 (id:1054430)

最佳女主角

└──黛安·基顿 (id:1053568)

最佳原创剧本

  1. ##### MediaInfo ######

  2. General

  3. Unique ID : 249765452248681369607740596281354397876 (0xBBE7138C0FB03D23A9B602C1B3D6A8B4)

  4. Complete name : Annie.Hall.1977.BluRay.1080p.x265.10bit.2Audio-MiniHD.mkv

  5. Format : Matroska

  6. Format version : Version 4

  7. File size : 5.48 GiB

  8. Duration : 1 h 33 min

  9. Overall bit rate : 8 407 kb/s

  10. Encoded date : UTC 2017-08-18 03:02:30

  11. Writing application : mkvmerge v11.0.0 ('Alive') 64bit

  12. Writing library : libebml v1.3.4 + libmatroska v1.4.5

  13. Video

  14. ID : 1

  15. Format : HEVC

  16. Format/Info : High Efficiency Video Coding

  17. Codec ID : V_MPEGH/ISO/HEVC

  18. Duration : 1 h 33 min

  19. Bit rate : 7 280 kb/s

  20. Width : 1 920 pixels

  21. Height : 1 040 pixels

  22. Display aspect ratio : 1.85:1

  23. Frame rate mode : Constant

  24. Frame rate : 23.976 (24000/1001/53354) FPS

  25. Bits/(Pixel*Frame) : 0.152

  26. Stream size : 4.75 GiB (87%)

  27. Default : Yes

  28. Forced : No

  29. Audio #1

  30. ID : 2

  31. Format : AC-3

  32. Format/Info : Audio Coding 3

  33. Commercial name : Dolby Digital

  34. Codec ID : A_AC3

  35. Duration : 1 h 33 min

  36. Bit rate mode : Constant

  37. Bit rate : 640 kb/s

  38. Channel(s) : 2 channels

  39. Channel layout : L R

  40. Sampling rate : 48.0 kHz

  41. Frame rate : 31.250 FPS (1536 SPF)

  42. Compression mode : Lossy

  43. Stream size : 428 MiB (8%)

  44. Language : English

  45. Service kind : Complete Main

  46. Default : Yes

  47. Forced : No

  48. Audio #2

  49. ID : 3

  50. Format : AC-3

  51. Format/Info : Audio Coding 3

  52. Commercial name : Dolby Digital

  53. Codec ID : A_AC3

  54. Duration : 1 h 33 min

  55. Bit rate mode : Constant

  56. Bit rate : 320 kb/s

  57. Channel(s) : 2 channels

  58. Channel layout : L R

  59. Sampling rate : 48.0 kHz

  60. Frame rate : 31.250 FPS (1536 SPF)

  61. Compression mode : Lossy

  62. Stream size : 214 MiB (4%)

  63. Language : Chinese

  64. Service kind : Complete Main

  65. Default : No

  66. Forced : No

  67. Text #1

  68. ID : 4

  69. Format : PGS

  70. Muxing mode : zlib

  71. Codec ID : S_HDMV/PGS

  72. Codec ID/Info : Picture based subtitle format used on BDs/HD-DVDs

  73. Language : English

  74. Default : Yes

  75. Forced : No

  76. Text #2

  77. ID : 5

  78. Format : VobSub

  79. Muxing mode : zlib

  80. Codec ID : S_VOBSUB

  81. Codec ID/Info : Picture based subtitle format used on DVDs

  82. Language : Chinese

  83. Default : No

  84. Forced : No

  85. Menu

  86. 00:00:00.000 : en:Chapter 01

  87. 00:00:57.098 : en:Chapter 02

  88. 00:02:41.619 : en:Chapter 03

  89. 00:04:02.992 : en:Chapter 04

  90. 00:05:39.672 : en:Chapter 05

  91. 00:07:23.985 : en:Chapter 06

  92. 00:10:03.644 : en:Chapter 07

  93. 00:14:01.590 : en:Chapter 08

  94. 00:18:18.013 : en:Chapter 09

  95. 00:21:13.021 : en:Chapter 10

  96. 00:23:59.980 : en:Chapter 11

  97. 00:29:04.951 : en:Chapter 12

  98. 00:33:26.713 : en:Chapter 13

  99. 00:34:24.228 : en:Chapter 14

  100. 00:36:36.194 : en:Chapter 15

  101. 00:37:17.610 : en:Chapter 16

  102. 00:37:47.682 : en:Chapter 17

  103. 00:38:43.237 : en:Chapter 18

  104. 00:40:04.985 : en:Chapter 19

  105. 00:42:50.901 : en:Chapter 20

  106. 00:44:14.652 : en:Chapter 21

  107. 00:45:42.865 : en:Chapter 22

  108. 00:47:08.158 : en:Chapter 23

  109. 00:49:18.497 : en:Chapter 24

  110. 00:52:36.736 : en:Chapter 25

  111. 00:53:54.981 : en:Chapter 26

  112. 00:54:19.673 : en:Chapter 27

  113. 00:55:40.253 : en:Chapter 28

  114. 00:56:49.989 : en:Chapter 29

  115. 01:01:19.008 : en:Chapter 30

  116. 01:01:58.631 : en:Chapter 31

  117. 01:02:26.617 : en:Chapter 32

  118. 01:03:47.823 : en:Chapter 33

  119. 01:04:28.906 : en:Chapter 34

  120. 01:06:59.724 : en:Chapter 35

  121. 01:09:22.449 : en:Chapter 36

  122. 01:10:23.302 : en:Chapter 37

  123. 01:11:50.973 : en:Chapter 38

  124. 01:13:02.044 : en:Chapter 39

  125. 01:15:00.496 : en:Chapter 40

  126. 01:18:12.562 : en:Chapter 41

  127. 01:19:12.080 : en:Chapter 42

  128. 01:20:29.574 : en:Chapter 43

  129. 01:22:12.385 : en:Chapter 44

  130. 01:22:42.916 : en:Chapter 45

  131. 01:26:04.951 : en:Chapter 46

  132. 01:28:16.833 : en:Chapter 47

  133. 01:29:05.214 : en:Chapter 48

  134. 01:31:21.267 : en:Chapter 49


复制代码


TAGS 剧情 喜剧 爱情 /

磁力链:
  • magnet:?xt=urn:btih:FE9179051FA47EE1AFE466DE58A803D7EB31DFAA
上传的附件:
BT9527电影天堂 1、BT9527电影天堂提供的BT文件均来源于互联网抓取,只供网友学习交流、技术提升使用。
2、我们遵守BitTorrent点对点协议原则,任何版权问题请联系原资源发布商,我们不处理任何版权纠纷,谢谢!如有争议请联系邮箱:BT9527#hotmail.com(#换成@)
3、如果您发现某页面或地址有错误,请联系站长邮箱BT9527#hotmail.com(#换成@),我们会尽快处理。您的热心是对BT9527电影天堂最大的支持。
4、本站建议去正规影院观看电影以支持电影行业发展。
最新回复 (0)

你可以在 登录 or 注册 后,对此帖发表评论!

返回
发新帖