妙想天开[中英字幕].Brazil.1985.BluRay.1080p.x265.10bit-MiniHD 9.93GB

版主小s 26天前 159

◎译 名 妙想天开 / 巴西 / 异想天开

◎片 名 Brazil

◎年 代 1985

◎产 地 英国 / 美国

◎类 别 剧情 / 科幻

◎语 言 英语

◎上映日期 1985-02-22(英国)

◎IMDb链接 https://www.imdb.com/title/tt0088846/

◎豆瓣评分 8.2/10 (15939人评价)

◎豆瓣链接 https://movie.douban.com/subject/1293823/

◎片 长 132分钟

◎导 演 特瑞·吉列姆 Terry Gilliam (id:1047980)

◎编 剧 特瑞·吉列姆 Terry Gilliam (id:1047980)

汤姆·斯托帕德 Tom Stoppard (id:1010739)

查尔斯·麦肯恩 Charles McKeown (id:1291662)

查尔斯·阿尔弗森 Charles Alverson (id:1030248)

◎演 员 乔纳森·普雷斯 Jonathan Pryce (id:1019055)

罗伯特·德尼罗 Robert De Niro (id:1054445)

凯瑟琳·海蒙德 Katherine Helmond (id:1055198)

伊安·霍姆 Ian Holm (id:1049594)

鲍勃·霍斯金斯 Bob Hoskins (id:1041156)

迈克尔·帕林 Michael Palin (id:1048209)

伊恩·理查森 Ian Richardson (id:1055184)

皮特·沃恩 Peter Vaughan (id:1156985)

金·格雷斯特 Kim Greist (id:1055068)

吉姆·布劳德本特 Jim Broadbent (id:1019049)

芭芭拉·希克斯 Barbara Hicks (id:1102333)

查尔斯·麦肯恩 Charles McKeown (id:1291662)

德里克·奥康纳 Derrick O'Connor (id:1343058)

凯瑟琳·波格森 Kathryn Pogson (id:1343059)

布莱恩·普林格 Bryan Pringle (id:1129403)

希拉·里德 Sheila Reid (id:1422596)

约翰·福拉纳干 John Flanagan (id:1084123)

雷·库珀 Ray Cooper (id:1023462)

布莱恩·米勒 Brian Miller (id:1343061)

Simon Nash Simon Nash (id:1131253)

西蒙·琼斯 Simon Jones (id:1105193)

Derek Deadman Derek Deadman (id:1375685)

奈格尔·派纳 Nigel Planer (id:1032398)

特伦斯·贝勒 Terence Bayler (id:1066338)

戈登·凯 Gorden Kaye (id:1107376)

比尔·沃利斯 Bill Wallis (id:1349894)

杰克·普韦思 Jack Purvis (id:1366832)

Myrtle Devenish Myrtle Devenish (id:1089973)

安·韦 Ann Way (id:1160922)

Don Henderson Don Henderson (id:1041595)

霍华德·卢刘易斯 Howard Lew Lewis (id:1120653)

Oscar Quitak Oscar Quitak (id:1141276)

Harold Innocent Harold Innocent (id:1111617)

约翰·格里洛 John Grillo (id:1100017)

戴维·甘特 David Gant (id:1343192)

帕特里克·康纳 Patrick Connor (id:1076809)

罗杰·阿什顿-格里菲斯 Roger Ashton-Griffiths (id:1054793)

Sue Hodge Sue Hodge (id:1097831)

萨迪·科尔 Sadie Corre (id:1079015)

玛格丽塔·道尔 Margarita Doyle (id:1282685)

泰瑞·佛瑞斯塔 Terry Forrestal (id:1087653)

特瑞·吉列姆 Terry Gilliam (id:1047980)

约翰·哈斯勒 John Hasler (id:1352389)

Peter Sands Peter Sands (id:1296640)

希拉·里德 Sheila Reid (id:1343060)

Patrick Cassavetti Patrick Cassavetti (id:1280248)

迈克尔·凯曼 Michael Kamen (id:1000552)

罗杰·普拉特 Roger Pratt (id:1032441)

Irene Lamb Irene Lamb (id:1289323)

诺尔曼·加尔伍德 Norman Garwood (id:1284595)

约翰·比尔德 John Beard (id:1278147)

Keith Pain Keith Pain (id:1293817)

詹姆斯·艾奇逊 James Acheson (id:1276780)

Sandra Shepherd Sandra Shepherd (id:1297416)

Elaine Carew Elaine Carew (id:1280084)

Maralyn Sherman Maralyn Sherman (id:1297437)

玛吉·韦斯顿 Maggie Weston (id:1306971)

Chris Thompson Chris Thompson (id:1299173)

肯特·休斯顿 Kent Houston (id:1286980)

理查德·康威 Richard Conway (id:1281180)

◎简 介

未来,英国进入一个资讯管控的时代,每个人的一举一动都遭到监视。因为被认定为恐怖分子,巴托在家中被捕,而且逮捕过程严格按照流程。这个案件引起了档案局职员山姆?劳伊(乔纳森?普雷斯 Jonathan Pryce 饰)的兴趣。随后,他遵从母命,进入资讯管理局工作,得以进一步调查此事。

山姆家的空调坏了,在他求助无望之际,电气修理工达脱(罗伯特?德尼罗 Robert De Niro 饰)不请自来。他那一身武器装备,让山姆感到如临大敌。原来,达脱是资讯管理局通缉的要犯,他被指控的理由便是不遵守作业程序。随后,山姆发现资讯管理局对巴托案件存在不可告人的疑点,同事杰克(迈克尔?帕林 Michael Palin 饰)对此闪烁其词。于是,山姆决定一探究竟,其间他邂逅了梦中情人——吉尔?莱顿(金?格雷斯特 Kim Greist 饰),两个人并肩作战,发现了一个巨大的阴谋...

◎获奖情况 (共2项)

第58届奥斯卡金像奖 (1986)

最佳原创剧本(提名)

最佳艺术指导(提名)

  1. ##### MediaInfo ######

  2. General

  3. Unique ID : 193906380065947361380073512894172868210 (0x91E102A81C7A888383CB50F65AA5AE72)

  4. Complete name : Brazil.1985.BluRay.1080p.x265.10bit-MiniHD.mkv

  5. Format : Matroska

  6. Format version : Version 4

  7. File size : 9.93 GiB

  8. Duration : 2 h 23 min

  9. Overall bit rate : 9 913 kb/s

  10. Encoded date : UTC 2017-10-26 10:55:49

  11. Writing application : mkvmerge v11.0.0 ('Alive') 64bit

  12. Writing library : libebml v1.3.4 + libmatroska v1.4.5

  13. Video

  14. ID : 1

  15. Format : HEVC

  16. Format/Info : High Efficiency Video Coding

  17. Codec ID : V_MPEGH/ISO/HEVC

  18. Duration : 2 h 23 min

  19. Bit rate : 9 556 kb/s

  20. Width : 1 920 pixels

  21. Height : 1 080 pixels

  22. Display aspect ratio : 16:9

  23. Frame rate mode : Constant

  24. Frame rate : 23.976 (24000/1001/53354) FPS

  25. Bits/(Pixel*Frame) : 0.192

  26. Stream size : 9.57 GiB (96%)

  27. Default : Yes

  28. Forced : No

  29. Audio

  30. ID : 2

  31. Format : AC-3

  32. Format/Info : Audio Coding 3

  33. Commercial name : Dolby Digital

  34. Codec ID : A_AC3

  35. Duration : 2 h 23 min

  36. Bit rate mode : Constant

  37. Bit rate : 320 kb/s

  38. Channel(s) : 2 channels

  39. Channel layout : L R

  40. Sampling rate : 48.0 kHz

  41. Frame rate : 31.250 FPS (1536 SPF)

  42. Compression mode : Lossy

  43. Stream size : 328 MiB (3%)

  44. Language : English

  45. Service kind : Complete Main

  46. Default : Yes

  47. Forced : No

  48. Text #1

  49. ID : 3

  50. Format : PGS

  51. Muxing mode : zlib

  52. Codec ID : S_HDMV/PGS

  53. Codec ID/Info : Picture based subtitle format used on BDs/HD-DVDs

  54. Duration : 2 h 22 min

  55. Bit rate : 12.5 kb/s

  56. Count of elements : 2526

  57. Stream size : 12.7 MiB (0%)

  58. Language : English

  59. Default : Yes

  60. Forced : No

  61. Text #2

  62. ID : 4

  63. Format : PGS

  64. Muxing mode : zlib

  65. Codec ID : S_HDMV/PGS

  66. Codec ID/Info : Picture based subtitle format used on BDs/HD-DVDs

  67. Duration : 2 h 19 min

  68. Bit rate : 11.3 kb/s

  69. Count of elements : 2592

  70. Stream size : 11.3 MiB (0%)

  71. Language : Chinese

  72. Default : No

  73. Forced : No

  74. Text #3

  75. ID : 5

  76. Format : PGS

  77. Muxing mode : zlib

  78. Codec ID : S_HDMV/PGS

  79. Codec ID/Info : Picture based subtitle format used on BDs/HD-DVDs

  80. Duration : 2 h 19 min

  81. Bit rate : 11.8 kb/s

  82. Count of elements : 2592

  83. Stream size : 11.8 MiB (0%)

  84. Language : Chinese

  85. Default : No

  86. Forced : No

  87. Menu

  88. 00:00:00.000 : en:00:00:00.000 / en:00:00:00.000

  89. 00:10:04.354 : en:00:10:04.354 / en:00:10:04.354

  90. 00:16:55.348 : en:00:16:55.348 / en:00:16:55.348

  91. 00:23:57.561 : en:00:23:57.561 / en:00:23:57.561

  92. 00:34:35.490 : en:00:34:35.490 / en:00:34:35.490

  93. 00:40:00.315 : en:00:40:00.315 / en:00:40:00.315

  94. 00:47:32.850 : en:00:47:32.850 / en:00:47:32.850

  95. 00:51:27.793 : en:00:51:27.793 / en:00:51:27.793

  96. 00:59:04.541 : en:00:59:04.541 / en:00:59:04.541

  97. 01:05:57.787 : en:01:05:57.787 / en:01:05:57.787

  98. 01:15:35.239 : en:01:15:35.239 / en:01:15:35.239

  99. 01:25:53.440 : en:01:25:53.440 / en:01:25:53.440

  100. 01:31:51.965 : en:01:31:51.965 / en:01:31:51.965

  101. 01:41:41.053 : en:01:41:41.053 / en:01:41:41.053

  102. 01:47:08.839 : en:01:47:08.839 / en:01:47:08.839

  103. 01:51:06.159 : en:01:51:06.159 / en:01:51:06.159

  104. 01:57:45.600 : en:01:57:45.600 / en:01:57:45.600

  105. 02:01:28.656 : en:02:01:28.656 / en:02:01:28.656

  106. 02:11:42.770 : en:02:11:42.770 / en:02:11:42.770

  107. 02:19:23.021 : en:02:19:23.021 / en:02:19:23.021


复制代码


TAGS 剧情 科幻 /

磁力链:
  • magnet:?xt=urn:btih:2C8CD2F859855529E662BC590A38C8F4ADF3D543
上传的附件:
BT9527电影天堂 1、BT9527电影天堂提供的BT文件均来源于互联网抓取,只供网友学习交流、技术提升使用。
2、我们遵守BitTorrent点对点协议原则,任何版权问题请联系原资源发布商,我们不处理任何版权纠纷,谢谢!如有争议请联系邮箱:BT9527#hotmail.com(#换成@)
3、如果您发现某页面或地址有错误,请联系站长邮箱BT9527#hotmail.com(#换成@),我们会尽快处理。您的热心是对BT9527电影天堂最大的支持。
4、本站建议去正规影院观看电影以支持电影行业发展。
最新回复 (0)

你可以在 登录 or 注册 后,对此帖发表评论!

返回
发新帖