女尸谜案[中英字幕].El.cuerpo.AKA.The.Body.2012.BluRay.1080p.x265.10bit-MiniHD 4.96GB

版主小s 1月前 369

◎译 名 女尸谜案 / 尸物招领(台) / 尸体 / The Body

◎片 名 El cuerpo

◎年 代 2012

◎产 地 西班牙

◎类 别 悬疑 / 惊悚 / 犯罪

◎语 言 西班牙语

◎上映日期 2012-12-21(西班牙)

◎IMDb链接 https://www.imdb.com/title/tt1937149/

◎豆瓣评分 7.6/10 (40018人评价)

◎豆瓣链接 https://movie.douban.com/subject/10608242/

◎片 长 111分钟

◎导 演 奥里奥尔·保罗 Oriol Paulo (id:1323799)

◎编 剧 奥里奥尔·保罗 Oriol Paulo (id:1323799)

拉拉·森迪姆 Lara Sendim (id:1328822)

◎演 员 何塞·科罗纳多 José Coronado (id:1074062)

乌戈·席尔瓦 Hugo Silva (id:1045283)

贝伦·鲁埃达 Belén Rueda (id:1032298)

奥拉·加里多 Aura Garrido (id:1265576)

胡安·巴勃罗·舒克 Juan Pablo Shuk (id:1142637)

奥里奥尔·比拉 Oriol Vila (id:1031768)

卡洛塔·奥尔奇娜 Carlota Olcina (id:1215541)

西尔维亚·阿兰达 Sílvia Aranda (id:1061030)

马内尔·杜维索 Manel Dueso (id:1370704)

佩雷·布拉索 Pere Brasó (id:1345183)

阿伊达·奥赛 Aida Oset (id:1232779)

克里斯蒂娜·普拉萨斯 Cristina Plazas (id:1213586)

娜乌西卡·邦宁 Nausicaa Bonnín (id:1066389)

华金·奥里斯特雷利 Joaquín Oristrell (id:1293621)

蒙特斯·瓜拉尔 Montse Guallar (id:1459227)

米克尔·盖拉伯特 Miquel Gelabert (id:1459255)

玛丽亚·雷耶斯 Maria Reyes (id:1308051)

◎简 介

西班牙的深夜,一名中年男子惊慌失措奔跑在丛林间,最终被一辆公路上飞驰的汽车撞成重伤。警方初步探查得知,此人是某停尸房警卫,他在出事前肯定见过什么恐怖景象。经过进一步调查发现,原来当晚停尸房丢了一具尸体。尸体名叫玛卡·维拉芙尔德(贝伦·鲁艾达 Belén Rueda 饰),是一位呼风唤雨的企业女强人,当天下午乘飞机从洛杉矶回来后不久即因心脏病去世。警方联系上玛卡的丈夫,此时正陪伴情人的亚历克斯(雨果·席尔瓦 Hugo Silva 饰)。他谈论妻子时的冷漠不得不让人对他们夫妻间的关系产生质疑。

伴随着诡异肃杀的气氛,真相渐渐浮出水面……

◎获奖情况 (共1项)

第27届西班牙戈雅奖 (2013)

最佳新人导演(提名)

└──奥里奥尔·保罗 (id:1323799)

  1. ##### MediaInfo ######

  2. General

  3. Unique ID : 247362340947506655496531307954754200431 (0xBA18410328B56F78837DCDCD7496A36F)

  4. Complete name : El.cuerpo.AKA.The.Body.2012.BluRay.1080p.x265.10bit-MiniHD.mkv

  5. Format : Matroska

  6. Format version : Version 4

  7. File size : 4.96 GiB

  8. Duration : 1 h 53 min

  9. Overall bit rate : 6 223 kb/s

  10. Encoded date : UTC 2017-05-27 06:24:23

  11. Writing application : mkvmerge v11.0.0 ('Alive') 64bit

  12. Writing library : libebml v1.3.4 + libmatroska v1.4.5

  13. Video

  14. ID : 1

  15. Format : HEVC

  16. Format/Info : High Efficiency Video Coding

  17. Codec ID : V_MPEGH/ISO/HEVC

  18. Duration : 1 h 53 min

  19. Bit rate : 5 460 kb/s

  20. Width : 1 920 pixels

  21. Height : 804 pixels

  22. Display aspect ratio : 2.40:1

  23. Frame rate mode : Constant

  24. Frame rate : 24.000 FPS

  25. Bits/(Pixel*Frame) : 0.147

  26. Stream size : 4.35 GiB (88%)

  27. Default : Yes

  28. Forced : No

  29. Audio

  30. ID : 2

  31. Format : AC-3

  32. Format/Info : Audio Coding 3

  33. Commercial name : Dolby Digital

  34. Codec ID : A_AC3

  35. Duration : 1 h 53 min

  36. Bit rate mode : Constant

  37. Bit rate : 640 kb/s

  38. Channel(s) : 6 channels

  39. Channel layout : L R C LFE Ls Rs

  40. Sampling rate : 48.0 kHz

  41. Frame rate : 31.250 FPS (1536 SPF)

  42. Compression mode : Lossy

  43. Stream size : 522 MiB (10%)

  44. Language : Spanish

  45. Service kind : Complete Main

  46. Default : Yes

  47. Forced : No

  48. Text #1

  49. ID : 3

  50. Format : PGS

  51. Muxing mode : zlib

  52. Codec ID : S_HDMV/PGS

  53. Codec ID/Info : Picture based subtitle format used on BDs/HD-DVDs

  54. Language : English

  55. Default : Yes

  56. Forced : No

  57. Text #2

  58. ID : 4

  59. Format : PGS

  60. Muxing mode : zlib

  61. Codec ID : S_HDMV/PGS

  62. Codec ID/Info : Picture based subtitle format used on BDs/HD-DVDs

  63. Language : Spanish

  64. Default : No

  65. Forced : No

  66. Text #3

  67. ID : 5

  68. Format : PGS

  69. Muxing mode : zlib

  70. Codec ID : S_HDMV/PGS

  71. Codec ID/Info : Picture based subtitle format used on BDs/HD-DVDs

  72. Language : Chinese

  73. Default : No

  74. Forced : No

  75. Text #4

  76. ID : 6

  77. Format : PGS

  78. Muxing mode : zlib

  79. Codec ID : S_HDMV/PGS

  80. Codec ID/Info : Picture based subtitle format used on BDs/HD-DVDs

  81. Language : Chinese

  82. Default : No

  83. Forced : No

  84. Menu

  85. 00:00:00.000 : en:Chapter 01

  86. 00:08:30.000 : en:Chapter 02

  87. 00:18:20.000 : en:Chapter 03

  88. 00:26:33.000 : en:Chapter 04

  89. 00:36:05.000 : en:Chapter 05

  90. 00:45:13.000 : en:Chapter 06

  91. 00:52:10.000 : en:Chapter 07

  92. 01:00:11.000 : en:Chapter 08

  93. 01:08:29.000 : en:Chapter 09

  94. 01:16:49.000 : en:Chapter 10

  95. 01:28:19.000 : en:Chapter 11

  96. 01:34:22.000 : en:Chapter 12


复制代码


TAGS 惊悚 悬疑 犯罪 /

磁力链:
  • magnet:?xt=urn:btih:901C71A071824E0D6A19F15E107F668055ABB9CB
上传的附件:
BT9527电影天堂 1、BT9527电影天堂提供的BT文件均来源于互联网抓取,只供网友学习交流、技术提升使用。
2、我们遵守BitTorrent点对点协议原则,任何版权问题请联系原资源发布商,我们不处理任何版权纠纷,谢谢!如有争议请联系邮箱:BT9527#hotmail.com(#换成@)
3、如果您发现某页面或地址有错误,请联系站长邮箱BT9527#hotmail.com(#换成@),我们会尽快处理。您的热心是对BT9527电影天堂最大的支持。
4、本站建议去正规影院观看电影以支持电影行业发展。
最新回复 (0)

你可以在 登录 or 注册 后,对此帖发表评论!

返回
发新帖