天若有情[国语音轨/中英字幕].A.Moment.of.Romance.1990.BluRay.1080p.x265.10bit.2Audio-MiniHD 4.97GB

版主小s 26天前 149

◎译 名 天若有情 / 追梦人 / 天若有情1 / If Sky Have Love / A Moment of Romance

◎年 代 1990

◎产 地 中国香港

◎类 别 剧情 / 动作 / 爱情

◎语 言 粤语

◎上映日期 1990-06-14(中国香港)

◎IMDb链接 https://www.imdb.com/title/tt0100777/

◎豆瓣评分 8.4/10 (92705人评价)

◎豆瓣链接 https://movie.douban.com/subject/1297710/

◎片 长 92分钟

◎导 演 陈木胜 Benny Chan (id:1274293)

◎编 剧 阮世生 James Yuen (id:1023957)

◎演 员 刘德华 Andy Lau (id:1054424)

吴倩莲 Chien-lien Wu (id:1166703)

吴孟达 Man Tat Ng (id:1016771)

朱铁和 Tiet Wo Chu (id:1331124)

刘江 Kong Lau (id:1274572)

黄光亮 Kwong Leung Wong (id:1301194)

仙杜拉 Sandra Lang (id:1424221)

钟荣 Chung Wing (id:1432989)

林富伟 Fu-wai Lam (id:1433957)

林志泰 Chi Tai Lam (id:1433961)

姚文基 Man-kei Yiu (id:1435360)

林聪 Chung Lam (id:1355709)

洪同剑 Tung-Kim Hung (id:1418745)

黄伟辉 Wong Wai-Fai (id:1275163)

简瑞超 Ruichao Jian (id:1327644)

吴回 Wui Ng (id:1054333)

黄莎莉 Shirley Huang (id:1219888)

元彬 Bun Yuen (id:1278657)

梁珊 Shan Leung (id:1329213)

陈敏儿 Barbara Chan (id:1343632)

朱继生 Joe Chu (id:1351049)

吴浣仪 Yuen Yee Ng (id:1324439)

黃志明 Chi-Ming Wong (id:1398969)

谢伟杰 Wai-Kit Tse (id:1416431)

朱嘉懿 Julia Chu (id:1415701)

林岭东 Ringo Lam (id:1275076)

王晶 Jing Wong (id:1274331)

杜琪峰 Johnnie To (id:1160186)

袁凤瑛 Fung-Ying Yuen (id:1419130)

罗大佑 Tayu Lo (id:1011384)

花比傲 Fabio Carli (id:1280085)

黄永恒 Wing-Hung Wong (id:1300411)

陈广鸿 Kwong-Hung Chan (id:1318796)

成运安 Shing Gwan-On (id:1407239)

朱日红 Yat-Hung Chu (id:1330740)

罗礼贤 Bruce Law (id:1289542)

◎简 介

华弟(刘德华 饰)是一个黑道的小混混,喜欢从飚车中得到快感,整天骑着电单车。他在极不愿意的情况下做了一宗抢劫案,警方怀疑他实施追捕,他挟持了富家女Jojo(吴倩莲 饰)出走,没想到他们不管悬殊的身份地位,很快爱上了对方。Jojo不管家里人的反对跟着华弟出走。华弟后来更遭到了黑道老大的追杀,两人亡命天涯。

◎获奖情况 (共4项)

第10届香港电影金像奖 (1991)

最佳男配角

└──吴孟达 (id:1016771)

最佳新演员(提名)

└──吴倩莲 (id:1166703)

最佳原创电影音乐(提名)

最佳原创电影歌曲(提名)

└──罗大佑 (id:1011384)

  1. ##### MediaInfo ######

  2. General

  3. Unique ID : 186562841057006694297671329803671642399 (0x8C5AB23AD44FF040839476FEB1BF211F)

  4. Complete name : A.Moment.of.Romance.1990.BluRay.1080p.x265.10bit.2Audio-MiniHD.mkv

  5. Format : Matroska

  6. Format version : Version 4

  7. File size : 4.97 GiB

  8. Duration : 1 h 31 min

  9. Overall bit rate : 7 736 kb/s

  10. Encoded date : UTC 2017-06-19 11:47:55

  11. Writing application : mkvmerge v11.0.0 ('Alive') 64bit

  12. Writing library : libebml v1.3.4 + libmatroska v1.4.5

  13. Video

  14. ID : 1

  15. Format : HEVC

  16. Format/Info : High Efficiency Video Coding

  17. Codec ID : V_MPEGH/ISO/HEVC

  18. Duration : 1 h 31 min

  19. Bit rate : 6 686 kb/s

  20. Width : 1 920 pixels

  21. Height : 1 080 pixels

  22. Display aspect ratio : 16:9

  23. Frame rate mode : Constant

  24. Frame rate : 24.000 FPS

  25. Bits/(Pixel*Frame) : 0.134

  26. Stream size : 4.29 GiB (86%)

  27. Default : Yes

  28. Forced : No

  29. Audio #1

  30. ID : 2

  31. Format : AC-3

  32. Format/Info : Audio Coding 3

  33. Commercial name : Dolby Digital

  34. Codec ID : A_AC3

  35. Duration : 1 h 31 min

  36. Bit rate mode : Constant

  37. Bit rate : 256 kb/s

  38. Channel(s) : 2 channels

  39. Channel layout : L R

  40. Sampling rate : 48.0 kHz

  41. Frame rate : 31.250 FPS (1536 SPF)

  42. Compression mode : Lossy

  43. Stream size : 168 MiB (3%)

  44. Language : Chinese

  45. Service kind : Complete Main

  46. Default : No

  47. Forced : No

  48. Audio #2

  49. ID : 3

  50. Format : AC-3

  51. Format/Info : Audio Coding 3

  52. Commercial name : Dolby Digital

  53. Codec ID : A_AC3

  54. Duration : 1 h 31 min

  55. Bit rate mode : Constant

  56. Bit rate : 640 kb/s

  57. Channel(s) : 2 channels

  58. Channel layout : L R

  59. Sampling rate : 48.0 kHz

  60. Frame rate : 31.250 FPS (1536 SPF)

  61. Compression mode : Lossy

  62. Stream size : 421 MiB (8%)

  63. Language : Chinese

  64. Service kind : Complete Main

  65. Default : Yes

  66. Forced : No

  67. Text #1

  68. ID : 4

  69. Format : PGS

  70. Muxing mode : zlib

  71. Codec ID : S_HDMV/PGS

  72. Codec ID/Info : Picture based subtitle format used on BDs/HD-DVDs

  73. Language : Chinese

  74. Default : Yes

  75. Forced : No

  76. Text #2

  77. ID : 5

  78. Format : PGS

  79. Muxing mode : zlib

  80. Codec ID : S_HDMV/PGS

  81. Codec ID/Info : Picture based subtitle format used on BDs/HD-DVDs

  82. Language : Chinese

  83. Default : No

  84. Forced : No

  85. Text #3

  86. ID : 6

  87. Format : PGS

  88. Muxing mode : zlib

  89. Codec ID : S_HDMV/PGS

  90. Codec ID/Info : Picture based subtitle format used on BDs/HD-DVDs

  91. Language : English

  92. Default : No

  93. Forced : No

  94. Menu

  95. 00:00:00.000 : en:Chapter 01

  96. 00:07:59.000 : en:Chapter 02

  97. 00:16:42.208 : en:Chapter 03

  98. 00:24:00.416 : en:Chapter 04

  99. 00:31:55.166 : en:Chapter 05

  100. 00:40:06.416 : en:Chapter 06

  101. 00:49:11.291 : en:Chapter 07

  102. 00:56:58.000 : en:Chapter 08

  103. 01:04:15.416 : en:Chapter 09

  104. 01:11:54.833 : en:Chapter 10

  105. 01:21:01.375 : en:Chapter 11

  106. 01:29:44.833 : en:Chapter 12


复制代码


TAGS 动作 剧情 爱情 /

磁力链:
  • magnet:?xt=urn:btih:143A740A16AD59768FB741A256A553CDB9027AA7
上传的附件:
BT9527电影天堂 1、BT9527电影天堂提供的BT文件均来源于互联网抓取,只供网友学习交流、技术提升使用。
2、我们遵守BitTorrent点对点协议原则,任何版权问题请联系原资源发布商,我们不处理任何版权纠纷,谢谢!如有争议请联系邮箱:BT9527#hotmail.com(#换成@)
3、如果您发现某页面或地址有错误,请联系站长邮箱BT9527#hotmail.com(#换成@),我们会尽快处理。您的热心是对BT9527电影天堂最大的支持。
4、本站建议去正规影院观看电影以支持电影行业发展。
最新回复 (0)

你可以在 登录 or 注册 后,对此帖发表评论!

返回
发新帖