天才枪手[国粤多音轨/简繁英字幕].Bad.Genius.2017.BluRay.1080p.x265.10bit.3Audio-MiniHD 4.83GB

版主小s 4月前 250

◎译 名 天才枪手 / 出猫特攻队(港) / 模犯生(台) / 完美作弊 / 高智商的作弊游戏 / 坏天才 / Bad Genius / Chalard games goeng

◎片 名 ????????????

◎年 代 2017

◎产 地 泰国

◎类 别 剧情 / 悬疑 / 犯罪

◎语 言 泰语 / 英语

◎上映日期 2017-10-13(中国大陆) / 2017-05-03(泰国)

◎IMDb链接 https://www.imdb.com/title/tt6788942/

◎豆瓣评分 8.2/10 (672255人评价)

◎豆瓣链接 https://movie.douban.com/subject/27024903/

◎片 长 130分钟

◎导 演 纳塔吾·彭皮里亚 Nattawut Poonpiriya (id:1331673)

◎编 剧 塔妮达·汉塔维瓦塔娜 Tanida Hantaweewatana (id:1378769)

瓦苏红·皮娅罗姆娜 Vasudhorn Piyaromna (id:1378770)

纳塔吾·彭皮里亚 Nattawut Poonpiriya (id:1331673)

◎演 员 茱蒂蒙·琼查容苏因 Chutimon Chuengcharoensukying (id:1378772)

查侬·散顶腾古 Chanon Santinatornkul (id:1366471)

依莎亚·贺苏汪 Eisaya Hosuwan (id:1378774)

披纳若·苏潘平佑 Teeradon Supapunpinyo (id:1368706)

塔内·瓦拉库努娄 Thaneth Warakulnukroh (id:1378775)

莎琳雷特·托马斯 Sarinrat Thomas (id:1378776)

伊戈·米基塔斯 Ego Mikitas (id:1378778)

帕辛·宽萨塔彭 Pasin Kuansataporn (id:1378780)

萨哈贾克·波斯安吉特 Sahajak Boonthanakit (id:1351809)

坎嘉娜·维耐潘尼 Kanjana Vinaipanid (id:1378781)

育塔彭·瓦拉努科洛楚 Yuthapong Varanukrohchoke (id:1378782)

诺帕瓦特·里基特王 Nopawat Likitwong (id:1330579)

维塔文·维拉维达亚南特 Best Vittawin Veeravidhayanant (id:1432677)

(id:1432532)

吉拉·马利戈尔 Jira Maligool (id:1305759)

瓦拉特·普拉泽特拉普 Warat Prasertlap (id:1462463)

◎简 介

影片根据2014年轰动一时的亚洲考场作弊案改编,讲述了天才学霸利用高智商考场作弊牟取暴利的故事。出生平凡的天才少女Lynn(茱蒂蒙·琼查容苏因 饰)在进入贵族学校后,结识了富二代同学Grace(依莎亚·贺苏汪饰)与Pat(披纳若·苏潘平佑饰),从此开始了考场作弊生涯,与此同时,另一名记忆力极佳的天才学霸Bank(查侬·散顶腾古 饰)发现了Lynn不为人知的“交易”。经过多场险象环生的“作弊战争”后,Lynn接下最后一单在国际考场上为富家子弟作弊的天价委托。一场横跨两大洲的完美作弊方案横空出世,然而一切并不像他们想的那么简单……

◎获奖情况 (共13项)

第27届泰国电影金天鹅奖 (2018)

最佳影片

最佳导演

└──纳塔吾·彭皮里亚 (id:1331673)

最佳男主角

└──查侬·散顶腾古 (id:1366471)

最佳女主角

└──茱蒂蒙·琼查容苏因 (id:1378772)

最佳男配角

└──塔内·瓦拉库努娄 (id:1378775)

最佳男配角(提名)

└──披纳若·苏潘平佑 (id:1368706)

最佳女配角(提名)

└──依莎亚·贺苏汪 (id:1378774)

第12届亚洲电影大奖 (2018)

最佳新演员

└──茱蒂蒙·琼查容苏因 (id:1378772)

最佳编剧(提名)

第4届豆瓣电影年度榜单 (2017)

评分最高的外语电影(提名)

最受关注的院线电影(提名)

评分最高的惊悚/犯罪片(提名)

10月最受关注电影

  1. ##### MediaInfo ######

  2. General

  3. Unique ID : 244159697242972772716344323383114196768 (0xB7AF727C91BC0020AA4888874C91E720)

  4. Complete name : Bad.Genius.2017.BluRay.1080p.x265.10bit.3Audio-MiniHD.mkv

  5. Format : Matroska

  6. Format version : Version 4

  7. File size : 4.83 GiB

  8. Duration : 2 h 9 min

  9. Overall bit rate : 5 319 kb/s

  10. Encoded date : UTC 2017-12-06 08:21:49

  11. Writing application : mkvmerge v18.0.0 ('Apricity') 64-bit

  12. Writing library : libebml v1.3.5 + libmatroska v1.4.8

  13. Video

  14. ID : 1

  15. Format : HEVC

  16. Format/Info : High Efficiency Video Coding

  17. Format profile : Main 10@L4@High

  18. Codec ID : V_MPEGH/ISO/HEVC

  19. Duration : 2 h 9 min

  20. Bit rate : 3 274 kb/s

  21. Width : 1 920 pixels

  22. Height : 804 pixels

  23. Display aspect ratio : 2.40:1

  24. Frame rate mode : Constant

  25. Frame rate : 24.000 FPS

  26. Color space : YUV

  27. Chroma subsampling : 4:2:0

  28. Bit depth : 10 bits

  29. Bits/(Pixel*Frame) : 0.088

  30. Stream size : 2.97 GiB (62%)

  31. Title : ad.Genius.hevc

  32. Writing library : x265 2.6+11-94dc146c5f67:[Windows][MSVC 1911][64 bit] 10bit

  33. Encoding settings : cpuid=533541173503 / frame-threads=4 / numa-pools=16 / wpp / no-pmode / no-pme / no-psnr / no-ssim / log-level=4 / csvfn=D:\Video\m2ts\Bad.Genius\265.log / csv-log-level=0 / input-csp=1 / input-res=1920x804 / interlace=0 / total-frames=0 / level-idc=0 / high-tier=1 / uhd-bd=0 / ref=5 / no-allow-non-conformance / no-repeat-headers / annexb / no-aud / no-hrd / info / hash=0 / no-temporal-layers / no-open-gop / min-keyint=1 / keyint=360 / gop-lookahead=0 / bframes=13 / b-adapt=2 / b-pyramid / bframe-bias=0 / rc-lookahead=60 / lookahead-slices=4 / NTMzNTQ=uuDQuD2mJt9fsCf / scenecut=40 / no-intra-refresh / ctu=32 / min-cu-size=8 / no-rect / no-amp / max-tu-size=16 / tu-inter-depth=2 / tu-intra-depth=2 / limit-tu=4 / rdoq-level=2 / dynamic-rd=0.00 / ssim-rd / signhide / no-tskip / nr-intra=0 / nr-inter=0 / no-constrained-intra / no-strong-intra-smoothing / max-merge=3 / limit-refs=2 / limit-modes / me=3 / subme=5 / merange=25 / temporal-mvp / weightp / weightb / no-analyze-src-pics / deblock=-1:-1 / no-sao / no-sao-non-deblock / rd=4 / no-early-skip / rskip / no-fast-intra / no-tskip-fast / no-cu-lossless / b-intra / no-splitrd-skip / rdpenalty=1 / psy-rd=1.50 / psy-rdoq=1.85 / no-rd-refine / analysis-reuse-mode=0 / no-lossless / cbqpoffs=-2 / crqpoffs=-2 / rc=crf / crf=19.0 / qcomp=0.65 / qpstep=4 / stats-write=0 / stats-read=0 / vbv-maxrate=18000 / vbv-bufsize=20000 / vbv-init=0.9 / crf-max=0.0 / crf-min=0.0 / ipratio=1.40 / pbratio=1.30 / aq-mode=2 / aq-strength=0.90 / cutree / zone-count=0 / no-strict-cbr / qg-size=16 / no-rc-grain / qpmax=69 / qpmin=0 / no-const-vbv / sar=0 / overscan=0 / videoformat=5 / range=0 / colorprim=1 / transfer=2 / colormatrix=2 / chromaloc=0 / display-window=0 / max-cll=0,0 / min-luma=0 / max-luma=1023 / log2-max-poc-lsb=8 / vui-timing-info / vui-hrd-info / slices=1 / no-opt-qp-pps / no-opt-ref-list-length-pps / no-multi-pass-opt-rps / scenecut-bias=0.05 / no-opt-cu-delta-qp / no-aq-motion / no-hdr / no-hdr-opt / no-dhdr10-opt / analysis-reuse-level=5 / scale-factor=0 / refine-intra=0 / refine-inter=0 / refine-mv=0 / no-limit-sao / ctu-info=0 / no-lowpass-dct / refine-mv-type=0 / copy-pic=1

  34. Default : Yes

  35. Forced : No

  36. Color range : Limited

  37. Color primaries : BT.709

  38. Audio #1

  39. ID : 2

  40. Format : AC-3

  41. Format/Info : Audio Coding 3

  42. Commercial name : Dolby Digital

  43. Codec ID : A_AC3

  44. Duration : 2 h 9 min

  45. Bit rate mode : Constant

  46. Bit rate : 640 kb/s

  47. Channel(s) : 6 channels

  48. Channel layout : L R C LFE Ls Rs

  49. Sampling rate : 48.0 kHz

  50. Frame rate : 31.250 FPS (1536 SPF)

  51. Compression mode : Lossy

  52. Stream size : 595 MiB (12%)

  53. Title : Bad.Genius.Thai.ac3

  54. Service kind : Complete Main

  55. Default : Yes

  56. Forced : No

  57. Audio #2

  58. ID : 3

  59. Format : AC-3

  60. Format/Info : Audio Coding 3

  61. Commercial name : Dolby Digital

  62. Codec ID : A_AC3

  63. Duration : 2 h 9 min

  64. Bit rate mode : Constant

  65. Bit rate : 640 kb/s

  66. Channel(s) : 6 channels

  67. Channel layout : L R C LFE Ls Rs

  68. Sampling rate : 48.0 kHz

  69. Frame rate : 31.250 FPS (1536 SPF)

  70. Compression mode : Lossy

  71. Stream size : 594 MiB (12%)

  72. Title : Bad.Genius.Mandarin.ac3

  73. Language : Chinese

  74. Service kind : Complete Main

  75. Default : No

  76. Forced : No

  77. Audio #3

  78. ID : 4

  79. Format : AC-3

  80. Format/Info : Audio Coding 3

  81. Commercial name : Dolby Digital

  82. Codec ID : A_AC3

  83. Duration : 2 h 9 min

  84. Bit rate mode : Constant

  85. Bit rate : 640 kb/s

  86. Channel(s) : 6 channels

  87. Channel layout : L R C LFE Ls Rs

  88. Sampling rate : 48.0 kHz

  89. Frame rate : 31.250 FPS (1536 SPF)

  90. Compression mode : Lossy

  91. Stream size : 595 MiB (12%)

  92. Title : Bad.Genius.Cantonese.ac3

  93. Language : Chinese

  94. Service kind : Complete Main

  95. Default : No

  96. Forced : No

  97. Text #1

  98. ID : 5

  99. Format : PGS

  100. Codec ID : S_HDMV/PGS

  101. Codec ID/Info : Picture based subtitle format used on BDs/HD-DVDs

  102. Duration : 2 h 8 min

  103. Bit rate : 48.2 kb/s

  104. Count of elements : 3562

  105. Stream size : 44.4 MiB (1%)

  106. Title : Bad.Genius.chs

  107. Language : Chinese

  108. Default : Yes

  109. Forced : No

  110. Text #2

  111. ID : 6

  112. Format : PGS

  113. Codec ID : S_HDMV/PGS

  114. Codec ID/Info : Picture based subtitle format used on BDs/HD-DVDs

  115. Duration : 2 h 8 min

  116. Bit rate : 49.8 kb/s

  117. Count of elements : 3562

  118. Stream size : 45.9 MiB (1%)

  119. Title : Bad.Genius.cht

  120. Language : Chinese

  121. Default : No

  122. Forced : No

  123. Text #3

  124. ID : 7

  125. Format : PGS

  126. Codec ID : S_HDMV/PGS

  127. Codec ID/Info : Picture based subtitle format used on BDs/HD-DVDs

  128. Duration : 2 h 2 min

  129. Bit rate : 26.9 kb/s

  130. Count of elements : 2399

  131. Stream size : 23.5 MiB (0%)

  132. Title : Bad.Genius.eng

  133. Language : English

  134. Default : No

  135. Forced : No

  136. Menu

  137. 00:00:00.000 : en:Chapter 01

  138. 00:09:00.000 : en:Chapter 02

  139. 00:21:20.000 : en:Chapter 03

  140. 00:30:46.000 : en:Chapter 04

  141. 00:41:38.000 : en:Chapter 05

  142. 00:52:55.000 : en:Chapter 06

  143. 01:05:51.000 : en:Chapter 07

  144. 01:16:34.000 : en:Chapter 08

  145. 01:25:22.000 : en:Chapter 09

  146. 01:37:36.000 : en:Chapter 10

  147. 01:49:19.000 : en:Chapter 11

  148. 01:57:19.000 : en:Chapter 12

  149. 02:09:52.000 : en:Chapter 13


复制代码


TAGS 剧情 悬疑 犯罪 /

磁力链:
  • magnet:?xt=urn:btih:2586E02C6117EC28C0205E5C4DA8AB70D6CC45D7
上传的附件:
BT9527电影天堂 1、BT9527电影天堂提供的BT文件均来源于互联网抓取,只供网友学习交流、技术提升使用。
2、我们遵守BitTorrent点对点协议原则,任何版权问题请联系原资源发布商,我们不处理任何版权纠纷,谢谢!如有争议请联系邮箱:BT9527#hotmail.com(#换成@)
3、如果您发现某页面或地址有错误,请联系站长邮箱BT9527#hotmail.com(#换成@),我们会尽快处理。您的热心是对BT9527电影天堂最大的支持。
4、本站建议去正规影院观看电影以支持电影行业发展。
最新回复 (0)

你可以在 登录 or 注册 后,对此帖发表评论!

返回