大逃亡[国英多音轨/中英字幕].The.Great.Escape.1963.BluRay.1080p.x265.10bit.2Audio-MiniHD 7.48GB

版主小s 4月前 241

◎译 名 大逃亡 / 龙虎榜(港) / 第三集中营(台) / 胜利大逃亡 / 绝处逢生 / 胜利逃亡

◎片 名 The Great Escape

◎年 代 1963

◎产 地 美国

◎类 别 剧情 / 历史 / 冒险

◎语 言 英语 / 德语 / 法语 / 俄语 / 西班牙语

◎上映日期 1963-07-04(美国)

◎IMDb链接 https://www.imdb.com/title/tt0057115/

◎豆瓣评分 8.3/10 (8636人评价)

◎豆瓣链接 https://movie.douban.com/subject/1294947/

◎片 长 172分钟

◎导 演 约翰·斯特奇斯 John Sturges (id:1016714)

◎编 剧 保罗·布里克西尔 Paul Brickhill (id:1040474)

詹姆斯·克拉韦尔 James Clavell (id:1027622)

威廉·赖利·伯内特 W.R. Burnett (id:1037532)

◎演 员 史蒂夫·麦奎因 Steve McQueen (id:1002693)

詹姆斯·加纳 James Garner (id:1002702)

理查德·阿滕伯勒 Richard Attenborough (id:1049601)

詹姆斯·唐纳德 James Donald (id:1089546)

查尔斯·布朗森 Charles Bronson (id:1041133)

唐纳德·普利森斯 Donald Pleasence (id:1027859)

詹姆斯·柯本 James Coburn (id:1049562)

汉斯·海西默 Hannes Messemer (id:1116987)

大卫·麦考姆 David McCallum (id:1049567)

戈登·杰克逊 Gordon Jackson (id:1104979)

约翰·莱顿 John Leyton (id:1114811)

Angus Lennie Angus Lennie (id:1120852)

奈杰尔·斯托克 Nigel Stock (id:1160412)

Robert Graf Robert Graf (id:1097021)

裘德·泰勒 Jud Taylor (id:1032820)

Hans Reiser Hans Reiser (id:1145506)

哈里·里鲍尔 Harry Riebauer (id:1138468)

威廉·拉塞尔 William Russell (id:1081838)

Robert Freitag Robert Freitag (id:1081057)

Ulrich Beiger Ulrich Beiger (id:1062895)

乔治·迈克尔 George Mikell (id:1124621)

劳伦斯·蒙田 Lawrence Montaigne (id:1032818)

Til Kiwe Til Kiwe (id:1103804)

海因茨·韦斯 Heinz Weiss (id:1162283)

汤姆·亚当斯 Tom Adams (id:1057536)

卡尔-奥托·阿伯提 Karl-Otto Alberty (id:1060260)

罗伯特·格拉夫 Robert Graf (id:1092343)

埃尔默·伯恩斯坦 Elmer Bernstein (id:1002856)

◎简 介

二战期间,德军的战俘营里,每个人都在渴望着自由。美国人希尔(史蒂夫?麦奎因 Steve McQueen 饰)在进入战俘营的第一天起,就一直计划着越狱。虽然他的十多次逃跑都以失败告终,但希尔从未放弃。这次,希尔和英国军官罗杰计划秘密挖掘隧道带领250人一起越狱。所有人都贡献出了自己的一分力配合这次计划,有人专门负责制作大家逃跑后需要穿着的平民服装、有人负责做假证件、还有人负责储备食品等等。然而就在他们的隧道大功告成那天,隧道却被德军发现了。逃跑计划的日期一天天临近,希尔他们又开始新一轮的挖掘工作。

◎获奖情况 (共2项)

第36届奥斯卡金像奖 (1964)

最佳剪辑(提名)

└──费里斯·韦伯斯特 (id:1046100)

第21届金球奖 (1964)

电影类 最佳剧情片(提名)

  1. ##### MediaInfo ######

  2. General

  3. Unique ID : 214998198022543236622146959159387371583 (0xA1BF2591CEA47533A8F1CA4B8B3E383F)

  4. Complete name : The.Great.Escape.1963.BluRay.1080p.x265.10bit.2Audio-MiniHD.mkv

  5. Format : Matroska

  6. Format version : Version 4

  7. File size : 7.48 GiB

  8. Duration : 2 h 52 min

  9. Overall bit rate : 6 210 kb/s

  10. Encoded date : UTC 2017-07-31 01:09:37

  11. Writing application : mkvmerge v11.0.0 ('Alive') 64bit

  12. Writing library : libebml v1.3.4 + libmatroska v1.4.5

  13. Video

  14. ID : 1

  15. Format : HEVC

  16. Format/Info : High Efficiency Video Coding

  17. Codec ID : V_MPEGH/ISO/HEVC

  18. Duration : 2 h 52 min

  19. Bit rate : 5 222 kb/s

  20. Width : 1 920 pixels

  21. Height : 818 pixels

  22. Display aspect ratio : 2.35:1

  23. Frame rate mode : Constant

  24. Frame rate : 23.976 (24000/1001/53354) FPS

  25. Bits/(Pixel*Frame) : 0.139

  26. Stream size : 6.29 GiB (84%)

  27. Default : Yes

  28. Forced : No

  29. Audio #1

  30. ID : 2

  31. Format : AC-3

  32. Format/Info : Audio Coding 3

  33. Commercial name : Dolby Digital

  34. Codec ID : A_AC3

  35. Duration : 2 h 52 min

  36. Bit rate mode : Constant

  37. Bit rate : 640 kb/s

  38. Channel(s) : 6 channels

  39. Channel layout : L R C LFE Ls Rs

  40. Sampling rate : 48.0 kHz

  41. Frame rate : 31.250 FPS (1536 SPF)

  42. Compression mode : Lossy

  43. Stream size : 789 MiB (10%)

  44. Language : English

  45. Service kind : Complete Main

  46. Default : Yes

  47. Forced : No

  48. Audio #2

  49. ID : 3

  50. Format : AC-3

  51. Format/Info : Audio Coding 3

  52. Commercial name : Dolby Digital

  53. Codec ID : A_AC3

  54. Duration : 2 h 52 min

  55. Bit rate mode : Constant

  56. Bit rate : 224 kb/s

  57. Channel(s) : 2 channels

  58. Channel layout : L R

  59. Sampling rate : 48.0 kHz

  60. Frame rate : 31.250 FPS (1536 SPF)

  61. Compression mode : Lossy

  62. Stream size : 276 MiB (4%)

  63. Language : Chinese

  64. Service kind : Complete Main

  65. Default : No

  66. Forced : No

  67. Text #1

  68. ID : 4

  69. Format : PGS

  70. Muxing mode : zlib

  71. Codec ID : S_HDMV/PGS

  72. Codec ID/Info : Picture based subtitle format used on BDs/HD-DVDs

  73. Language : English

  74. Default : Yes

  75. Forced : No

  76. Text #2

  77. ID : 5

  78. Format : PGS

  79. Muxing mode : zlib

  80. Codec ID : S_HDMV/PGS

  81. Codec ID/Info : Picture based subtitle format used on BDs/HD-DVDs

  82. Language : Chinese

  83. Default : No

  84. Forced : No

  85. Text #3

  86. ID : 6

  87. Format : PGS

  88. Muxing mode : zlib

  89. Codec ID : S_HDMV/PGS

  90. Codec ID/Info : Picture based subtitle format used on BDs/HD-DVDs

  91. Language : Chinese

  92. Default : No

  93. Forced : No

  94. Menu

  95. 00:00:00.000 : en:Chapter 01

  96. 00:02:37.991 : en:Chapter 02

  97. 00:10:43.309 : en:Chapter 03

  98. 00:18:48.127 : en:Chapter 04

  99. 00:22:11.371 : en:Chapter 05

  100. 00:25:59.766 : en:Chapter 06

  101. 00:29:39.444 : en:Chapter 07

  102. 00:33:18.329 : en:Chapter 08

  103. 00:36:45.244 : en:Chapter 09

  104. 00:40:32.138 : en:Chapter 10

  105. 00:42:23.707 : en:Chapter 11

  106. 00:45:22.386 : en:Chapter 12

  107. 00:46:56.814 : en:Chapter 13

  108. 00:56:45.193 : en:Chapter 14

  109. 00:58:07.192 : en:Chapter 15

  110. 01:10:20.049 : en:Chapter 16

  111. 01:12:18.751 : en:Chapter 17

  112. 01:17:51.541 : en:Chapter 18

  113. 01:25:36.756 : en:Chapter 19

  114. 01:31:17.305 : en:Chapter 20

  115. 01:44:44.569 : en:Chapter 21

  116. 01:53:42.398 : en:Chapter 22

  117. 02:03:10.132 : en:Chapter 23

  118. 02:15:58.817 : en:Chapter 24

  119. 02:20:06.314 : en:Chapter 25

  120. 02:24:37.710 : en:Chapter 26

  121. 02:28:40.661 : en:Chapter 27

  122. 02:31:14.398 : en:Chapter 28

  123. 02:33:19.023 : en:Chapter 29

  124. 02:40:29.620 : en:Chapter 30

  125. 02:48:13.374 : en:Chapter 31

  126. 02:50:09.449 : en:Chapter 32


复制代码


TAGS 冒险 剧情 历史 /

磁力链:
  • magnet:?xt=urn:btih:75802ABDB49DBE7C9C7B7BE9AD20D4A43E533F25
上传的附件:
BT9527电影天堂 1、BT9527电影天堂提供的BT文件均来源于互联网抓取,只供网友学习交流、技术提升使用。
2、我们遵守BitTorrent点对点协议原则,任何版权问题请联系原资源发布商,我们不处理任何版权纠纷,谢谢!如有争议请联系邮箱:BT9527#hotmail.com(#换成@)
3、如果您发现某页面或地址有错误,请联系站长邮箱BT9527#hotmail.com(#换成@),我们会尽快处理。您的热心是对BT9527电影天堂最大的支持。
4、本站建议去正规影院观看电影以支持电影行业发展。
最新回复 (0)

你可以在 登录 or 注册 后,对此帖发表评论!

返回
发新帖