大白鲨[国英多音轨/中英字幕].Jaws.1975.BluRay.1080p.x265.10bit.2Audio-MiniHD 5.28GB

版主小s 29天前 101

◎译 名 大白鲨 / Stillness in the Water / Hajen

◎片 名 Jaws

◎年 代 1975

◎产 地 美国

◎类 别 剧情 / 惊悚 / 冒险

◎语 言 英语

◎上映日期 1975-06-20

◎IMDb链接 https://www.imdb.com/title/tt0073195/

◎豆瓣评分 7.8/10 (89875人评价)

◎豆瓣链接 https://movie.douban.com/subject/1294941/

◎片 长 124 分钟

◎导 演 史蒂文·斯皮尔伯格 Steven Spielberg (id:1054440)

◎编 剧 彼得·本奇利 Peter Benchley (id:1045172)

卡尔·哥特列布 Carl Gottlieb (id:1032187)

约翰·米利厄斯 John Milius (id:1000285)

霍华德·塞克勒 Howard Sackler (id:1037686)

罗伯特·肖 Robert Shaw (id:1055263)

◎演 员 罗伊·谢德 Roy Scheider (id:1041132)

罗伯特·肖 Robert Shaw (id:1055263)

理查德·德莱福斯 Richard Dreyfuss (id:1041114)

洛兰·加里 Lorraine Gary (id:1090990)

莫瑞·汉密尔顿 Murray Hamilton (id:1098143)

卡尔·哥特列布 Carl Gottlieb (id:1032187)

杰弗瑞·克莱默 Jeffrey Kramer (id:1009694)

苏珊·巴克林尼 Susan Backlinie (id:1058218)

乔纳森·菲利 Jonathan Filley (id:1283702)

泰迪·格鲁斯曼 Ted Grossman (id:1361441)

克里斯·雷贝洛 Chris Rebello (id:1138810)

杰伊·梅洛 Jay Mello (id:1123939)

李·菲耶罗 Lee Fierro (id:1361442)

杰弗里·沃里斯 Jeffrey Voorhees (id:1361443)

克雷格·金斯伯里 Craig Kingsbury (id:1112745)

约翰·威廉姆斯 John Williams (id:1054692)

比尔·巴特勒 Bill Butler (id:1000839)

约翰·M·德维尔 John M. Dwyer (id:1282892)

Del Armstrong Del Armstrong (id:1277407)

◎简 介

艾米蒂岛是一个旅游度假胜地,有大批的游客来这里游泳。然而,大白鲨的出现却改变了这一切。事故从一对情侣开始,他们下海游泳,女的不幸成为了第一个牺牲者,支离破碎的尸体令人惨不忍睹。当地官员却不愿意封场调查,他们怕影响旅游收入,于是请来了生物学家布朗(理查德?德莱福斯 Richard Dreyfuss饰)。

布朗断定,这是一只非比寻常的巨大白鲨。他的提醒并没有引起当局的足够重视,紧接着又有人死于非命,事态才变得越发严重。当地一个熟练捕鱼手、警察和布朗一共三人,决心要捕杀大白鲨,凶险重重的搏斗开始了,谁才是最后的胜者?要获得这场战斗的胜利,又要付出怎样的代价?

◎获奖情况 (共4项)

第48届奥斯卡金像奖 (1976)

最佳影片(提名)

最佳剪辑

└──弗娜·菲尔兹 (id:1000909)

最佳音响

剧情片最佳原创配乐

└──约翰·威廉姆斯 (id:1054692)

  1. ##### MediaInfo ######

  2. General

  3. Unique ID : 215906489714491157582075865345035259165 (0xA26E13CEB54EC3D6A1EE67D44E0ECD1D)

  4. Complete name : Jaws.1975.BluRay.1080p.x265.10bit.2Audio-MiniHD.mkv

  5. Format : Matroska

  6. Format version : Version 4

  7. File size : 5.28 GiB

  8. Duration : 2 h 3 min

  9. Overall bit rate : 6 102 kb/s

  10. Encoded date : UTC 2017-04-13 11:28:16

  11. Writing application : mkvmerge v9.7.1 ('Pandemonium') 64bit

  12. Writing library : libebml v1.3.4 + libmatroska v1.4.5

  13. Video

  14. ID : 1

  15. Format : HEVC

  16. Format/Info : High Efficiency Video Coding

  17. Format profile : Main 10@L4@Main

  18. Codec ID : V_MPEGH/ISO/HEVC

  19. Duration : 2 h 3 min

  20. Bit rate : 5 235 kb/s

  21. Width : 1 920 pixels

  22. Height : 812 pixels

  23. Display aspect ratio : 2.35:1

  24. Frame rate mode : Constant

  25. Frame rate : 23.976 (24000/1001/53354) FPS

  26. Color space : YUV

  27. Chroma subsampling : 4:2:0

  28. Bit depth : 10 bits

  29. Bits/(Pixel*Frame) : 0.140

  30. Stream size : 4.53 GiB (86%)

  31. Writing library : x265 2.3+24-a0eee4b41185:[Windows][GCC 6.3.0][64 bit] 10bit

  32. Encoding settings : cpuid=533541173503 / frame-threads=6 / numa-pools=36 / wpp / no-pmode / no-pme / no-psnr / no-ssim / log-level=2 / input-csp=1 / input-res=1920x812 / interlace=0 / total-frames=178254 / level-idc=0 / high-tier=1 / uhd-bd=0 / ref=5 / no-allow-non-conformance / no-repeat-headers / annexb / no-aud / no-hrd / info / hash=0 / no-temporal-layers / no-open-gop / min-keyint=1 / keyint=360 / bframes=8 / b-adapt=2 / b-pyramid / bframe-bias=0 / rc-lookahead=60 / lookahead-slices=4 / NTMzNTQ=uuDQuD2mJt9fsCf / scenecut=40 / no-intra-refresh / ctu=32 / min-cu-size=8 / rect / no-amp / max-tu-size=16 / tu-inter-depth=2 / tu-intra-depth=2 / limit-tu=4 / rdoq-level=2 / dynamic-rd=0.00 / signhide / no-tskip / nr-intra=0 / nr-inter=0 / no-constrained-intra / no-strong-intra-smoothing / max-merge=3 / limit-refs=2 / limit-modes / me=3 / subme=5 / merange=25 / temporal-mvp / weightp / weightb / no-analyze-src-pics / deblock=-1:-1 / no-sao / no-sao-non-deblock / rd=4 / no-early-skip / rskip / no-fast-intra / no-tskip-fast / no-cu-lossless / b-intra / rdpenalty=1 / psy-rd=0.00 / psy-rdoq=5.00 / no-rd-refine / analysis-mode=0 / no-lossless / cbqpoffs=-2 / crqpoffs=-2 / rc=crf / crf=20.0 / qcomp=0.65 / qpstep=4 / stats-write=0 / stats-read=0 / ipratio=1.40 / pbratio=1.30 / aq-mode=2 / aq-strength=0.80 / cutree / zone-count=0 / no-strict-cbr / qg-size=16 / no-rc-grain / qpmax=69 / qpmin=0 / sar=0 / overscan=0 / videoformat=5 / range=0 / colorprim=1 / transfer=2 / colormatrix=2 / chromaloc=0 / display-window=0 / max-cll=0,0 / min-luma=0 / max-luma=1023 / log2-max-poc-lsb=8 / vui-timing-info / vui-hrd-info / slices=1 / opt-qp-pps / opt-ref-list-length-pps / no-multi-pass-opt-rps / scenecut-bias=0.05 / no-opt-cu-delta-qp / no-aq-motion / no-hdr / no-hdr-opt / refine-level=5

  33. Default : Yes

  34. Forced : No

  35. Color range : Limited

  36. Color primaries : BT.709

  37. Audio #1

  38. ID : 2

  39. Format : AC-3

  40. Format/Info : Audio Coding 3

  41. Commercial name : Dolby Digital

  42. Codec ID : A_AC3

  43. Duration : 2 h 3 min

  44. Bit rate mode : Constant

  45. Bit rate : 640 kb/s

  46. Channel(s) : 6 channels

  47. Channel layout : L R C LFE Ls Rs

  48. Sampling rate : 48.0 kHz

  49. Frame rate : 31.250 FPS (1536 SPF)

  50. Compression mode : Lossy

  51. Stream size : 567 MiB (10%)

  52. Language : English

  53. Service kind : Complete Main

  54. Default : Yes

  55. Forced : No

  56. Audio #2

  57. ID : 3

  58. Format : AC-3

  59. Format/Info : Audio Coding 3

  60. Commercial name : Dolby Digital

  61. Codec ID : A_AC3

  62. Duration : 2 h 3 min

  63. Bit rate mode : Constant

  64. Bit rate : 192 kb/s

  65. Channel(s) : 2 channels

  66. Channel layout : L R

  67. Sampling rate : 48.0 kHz

  68. Frame rate : 31.250 FPS (1536 SPF)

  69. Compression mode : Lossy

  70. Delay relative to video : 24 ms

  71. Stream size : 170 MiB (3%)

  72. Language : Chinese

  73. Service kind : Complete Main

  74. Default : No

  75. Forced : No

  76. Text #1

  77. ID : 4

  78. Format : PGS

  79. Muxing mode : zlib

  80. Codec ID : S_HDMV/PGS

  81. Codec ID/Info : Picture based subtitle format used on BDs/HD-DVDs

  82. Duration : 2 h 2 min

  83. Bit rate : 11.3 kb/s

  84. Count of elements : 3179

  85. Stream size : 9.93 MiB (0%)

  86. Language : English

  87. Default : Yes

  88. Forced : No

  89. Text #2

  90. ID : 5

  91. Format : PGS

  92. Muxing mode : zlib

  93. Codec ID : S_HDMV/PGS

  94. Codec ID/Info : Picture based subtitle format used on BDs/HD-DVDs

  95. Duration : 2 h 1 min

  96. Bit rate : 10.6 kb/s

  97. Count of elements : 2297

  98. Stream size : 9.21 MiB (0%)

  99. Language : Chinese

  100. Default : No

  101. Forced : No

  102. Text #3

  103. ID : 6

  104. Format : PGS

  105. Muxing mode : zlib

  106. Codec ID : S_HDMV/PGS

  107. Codec ID/Info : Picture based subtitle format used on BDs/HD-DVDs

  108. Duration : 2 h 1 min

  109. Bit rate : 11.9 kb/s

  110. Count of elements : 2297

  111. Stream size : 10.3 MiB (0%)

  112. Language : Chinese

  113. Default : No

  114. Forced : No

  115. Menu

  116. 00:00:00.000 : en:Chapter 01

  117. 00:01:48.900 : en:Chapter 02

  118. 00:07:33.786 : en:Chapter 03

  119. 00:11:20.179 : en:Chapter 04

  120. 00:13:35.356 : en:Chapter 05

  121. 00:18:11.590 : en:Chapter 06

  122. 00:24:30.260 : en:Chapter 07

  123. 00:27:41.242 : en:Chapter 08

  124. 00:32:46.673 : en:Chapter 09

  125. 00:45:18.006 : en:Chapter 10

  126. 00:53:31.041 : en:Chapter 11

  127. 01:01:28.643 : en:Chapter 12

  128. 01:06:11.801 : en:Chapter 13

  129. 01:21:03.191 : en:Chapter 14

  130. 01:26:24.971 : en:Chapter 15

  131. 01:36:24.236 : en:Chapter 16

  132. 01:50:00.802 : en:Chapter 17

  133. 01:56:47.166 : en:Chapter 18

  134. 01:57:52.356 : en:Chapter 19

  135. 02:02:35.639 : en:Chapter 20


复制代码


TAGS 冒险 剧情 惊悚 /

磁力链:
  • magnet:?xt=urn:btih:2A81C02D37E3F1611AE2D202CDC41F9E4F837A15
上传的附件:
BT9527电影天堂 1、BT9527电影天堂提供的BT文件均来源于互联网抓取,只供网友学习交流、技术提升使用。
2、我们遵守BitTorrent点对点协议原则,任何版权问题请联系原资源发布商,我们不处理任何版权纠纷,谢谢!如有争议请联系邮箱:BT9527#hotmail.com(#换成@)
3、如果您发现某页面或地址有错误,请联系站长邮箱BT9527#hotmail.com(#换成@),我们会尽快处理。您的热心是对BT9527电影天堂最大的支持。
4、本站建议去正规影院观看电影以支持电影行业发展。
最新回复 (0)

你可以在 登录 or 注册 后,对此帖发表评论!

返回
发新帖