行骗天下JP:英雄篇[简繁字幕].The.Confidence.Man.JP.Hero.2022.1080p.BluRay.x265.10bit.DTS-HomeHD 5.46GB

版主小s 29天前 235



◎译  名 行骗天下JP:英雄篇 / 行骗天下 剧场版:英雄篇
◎片  名 映画コンフィデンスマンJP 英雄編
◎年  代 2022
◎产  地 日本
◎类  别 喜剧
◎语  言 日语
◎上映日期 2022-01-14(日本)
◎IMDb链接 https://www.imdb.com/title/tt17008472/
◎豆瓣评分 8.3/10 (272人评价)
◎豆瓣链接 https://movie.douban.com/subject/35142915/
◎导  演 田中亮 Ry? Tanaka (id:1343858)
◎编  剧 古泽良太 Ryota Kosawa (id:1310750)
◎演  员 长泽雅美 Masami Nagasawa (id:1018667)
       东出昌大 Masahiro Higashide (id:1324960)
       小日向文世 Fumiyo Kohinata (id:1009219)
       竹内结子 Y?ko Takeuchi (id:1151757)
       三浦春马 Haruma Miura (id:1274379)
       江口洋介 Y?suke Eguchi (id:1088015)
       松重丰 Yutaka Matsushige (id:1016968)
       角野卓造 Takuz? Kadono (id:1222942)
       生濑胜久 Katsuhisa Namase (id:1029321)
       石黑贤 Ken Ishiguro (id:1008604)
       梶原善 Zen Kajiwara (id:1034972)
       高岛政宏 Masahiro Takashima (id:1042884)
       广末凉子 Ryoko Hirosue (id:1098533)
       濑户康史 Koji Seto (id:1275271)
       关水渚 Nagisa Sekimizu (id:1409443)
       真木阳子 Yoko Maki (id:1028094)
       织田梨沙 Lisa Oda (id:1366811)
       德永绘里 Eri Tokunaga (id:1046778)
       生田绘梨花 Erika Ikuta (id:1345746)

◎简  介
  长泽雅美、东出昌大、小日向文世主演的“行骗天下JP”系列,官宣将推出第3部电影《行骗天下JP:英雄篇》!

  1. ##### MediaInfo ######
  2. General
  3. Unique ID                                : 17613275766446550725571231399370889625 (0xD40318AA3F2A7E507670BB52C011999)
  4. Complete name                            : The.Confidence.Man.JP.Hero.2022.1080p.BluRay.x265.10bit.DTS-HomeHD.mkv
  5. Format                                   : Matroska
  6. Format version                           : Version 4
  7. File size                                : 5.46 GiB
  8. Duration                                 : 2 h 18 min
  9. Overall bit rate                         : 5 628 kb/s
  10. Movie name                               : The Confidence Man JP: Hero
  11. Encoded date                             : UTC 2022-05-29 09:29:20
  12. Writing application                      : mkvmerge v68.0.0 ('The Curtain') 64-bit
  13. Writing library                          : libebml v1.4.2 + libmatroska v1.6.4
  14. Attachments                              : FangZhengKaiTi-GBK-1.ttf / 华康华综体.ttf
  15. Video
  16. ID                                       : 1
  17. Format                                   : HEVC
  18. Format/Info                              : High Efficiency Video Coding
  19. Format profile                           : Main 10@L5@Main
  20. Codec ID                                 : V_MPEGH/ISO/HEVC
  21. Duration                                 : 2 h 6 min
  22. Bit rate                                 : 5 372 kb/s
  23. Width                                    : 1 920 pixels
  24. Height                                   : 1 038 pixels
  25. Display aspect ratio                     : 1.85:1
  26. Frame rate mode                          : Constant
  27. Frame rate                               : 23.976 (24000/1001/53354) FPS
  28. Color space                              : YUV
  29. Chroma subsampling                       : 4:2:0
  30. Bit depth                                : 10 bits
  31. Bits/(Pixel*Frame)                       : 0.112
  32. Stream size                              : 4.76 GiB (87%)
  33. Title                                    : Jubowo @ WiKi
  34. Language                                 : Japanese
  35. Default                                  : Yes
  36. Forced                                   : No
  37. Audio
  38. ID                                       : 2
  39. Format                                   : DTS
  40. Format/Info                              : Digital Theater Systems
  41. Codec ID                                 : A_DTS
  42. Duration                                 : 2 h 6 min
  43. Bit rate mode                            : Constant
  44. Bit rate                                 : 768 kb/s
  45. Channel(s)                               : 6 channels
  46. Channel layout                           : C L R Ls Rs LFE
  47. Sampling rate                            : 48.0 kHz
  48. Frame rate                               : 93.750 FPS (512 SPF)
  49. Bit depth                                : 24 bits
  50. Compression mode                         : Lossy
  51. Stream size                              : 697 MiB (12%)
  52. Language                                 : Japanese
  53. Default                                  : Yes
  54. Forced                                   : No
  55. Text #1
  56. ID                                       : 3
  57. Format                                   : ASS
  58. Codec ID                                 : S_TEXT/ASS
  59. Codec ID/Info                            : Advanced Sub Station Alpha
  60. Duration                                 : 2 h 18 min
  61. Bit rate                                 : 79 b/s
  62. Count of elements                        : 1574
  63. Compression mode                         : Lossless
  64. Stream size                              : 81.2 KiB (0%)
  65. Title                                    : 简体
  66. Language                                 : Chinese
  67. Default                                  : Yes
  68. Forced                                   : No
  69. Text #2
  70. ID                                       : 4
  71. Format                                   : ASS
  72. Codec ID                                 : S_TEXT/ASS
  73. Codec ID/Info                            : Advanced Sub Station Alpha
  74. Duration                                 : 2 h 18 min
  75. Bit rate                                 : 79 b/s
  76. Count of elements                        : 1574
  77. Compression mode                         : Lossless
  78. Stream size                              : 81.2 KiB (0%)
  79. Title                                    : 繁體
  80. Language                                 : Chinese
  81. Default                                  : No
  82. Forced                                   : No
  83. Menu
  84. 00:00:00.000                             : en:Chapter 01
  85. 00:06:51.202                             : en:Chapter 02
  86. 00:13:19.799                             : en:Chapter 03
  87. 00:19:49.063                             : en:Chapter 04
  88. 00:26:46.313                             : en:Chapter 05
  89. 00:35:05.186                             : en:Chapter 06
  90. 00:43:07.919                             : en:Chapter 07
  91. 00:51:54.069                             : en:Chapter 08
  92. 00:59:23.393                             : en:Chapter 09
  93. 01:09:03.473                             : en:Chapter 10
  94. 01:18:56.023                             : en:Chapter 11
  95. 01:25:53.815                             : en:Chapter 12
  96. 01:35:03.698                             : en:Chapter 13
  97. 01:44:10.453                             : en:Chapter 14
  98. 01:52:23.862                             : en:Chapter 15
  99. 02:00:29.055                             : en:Chapter 16
复制代码




TAGS 喜剧

磁力链:
  • magnet:?xt=urn:btih:226FCD1A032389DFF3BCDE00ABCC3E4525EDCAA3
上传的附件:
BT9527电影天堂 1、BT9527电影天堂提供的BT文件均来源于互联网抓取,只供网友学习交流、技术提升使用。
2、我们遵守BitTorrent点对点协议原则,任何版权问题请联系原资源发布商,我们不处理任何版权纠纷,谢谢!如有争议请联系邮箱:BT9527#hotmail.com(#换成@)
3、如果您发现某页面或地址有错误,请联系站长邮箱BT9527#hotmail.com(#换成@),我们会尽快处理。您的热心是对BT9527电影天堂最大的支持。
4、本站建议去正规影院观看电影以支持电影行业发展。
最新回复 (0)

你可以在 登录 or 注册 后,对此帖发表评论!

返回
发新帖