峰爆[粤语音轨/简繁字幕].Cloudy.Mountain.2021.1080p.BluRay.x265.10bit-HomeHD 5.02GB

版主小s 26天前 146



◎译  名 峰爆 / 无限救援 / 无限深度 / Cloudy Mountain / Infinite Depth
◎年  代 2021
◎产  地 中国大陆
◎类  别 剧情 / 动作 / 灾难
◎语  言 汉语普通话
◎上映日期 2021-09-17(中国大陆)
◎IMDb链接 https://www.imdb.com/title/tt15413054/
◎豆瓣评分 6.3/10 (144481人评价)
◎豆瓣链接 https://movie.douban.com/subject/35231370/
◎片  长 114分钟
◎导  演 李骏 Jun Li (id:1320190)
◎编  剧 沙颂 Song Sha (id:1327765)
       李骏 Jun Li (id:1320190)
◎演  员 朱一龙 Yilong Zhu (id:1318883)
       黄志忠 Zhizhong Huang (id:1255860)
       陈数 Shu Chen (id:1274346)
       焦俊艳 Junyan Jiao (id:1312818)
       成泰燊 Taishen Cheng (id:1196361)
       王戈 Ge Wang (id:1375802)
       卢思宇 Siyu Lu (id:1435098)
       洪剑涛 Jiantao Hong (id:1274654)
       周晓鸥 Xiaoou Zhou (id:1316334)
       斌子 Zi Bin (id:1322802)
       孙一理 Yi-li Sun (id:1316040)
       黄超 Chao Huang (id:1422009)
       闫鹏 Peng Yan (id:1433697)
       张国立 Guoli Zhang (id:1015115)
       张译 Yi Zhang (id:1274761)
       白客 White. K (id:1332932)
       乔欣 Bridgette (id:1351423)
       李光洁 Guangjie Li (id:1275178)
       乔振宇 Zhenyu Qiao (id:1275683)
       章申 Shen Zhang (id:1314409)
       于莎莎 Shasha Yu (id:1327598)
       陶虹 Hong Tao (id:1015199)
       陈卓 Zhuo Chen (id:1460651)
       赵晓时 Xiaoshi Zhao (id:1310556)
       焦宏奋 Hongfen Jiao (id:1412277)
       傅若清 Ruoqing Fu (id:1417588)
       许建海 Jianhai Xu (id:1384186)
       崔陆萌 Lumeng Cui (id:1349292)
       陈洁 Jessica Chen (id:1449063)
       杨东 Dong Yang (id:1403121)
       郭思达 Sida Guo (id:1392594)
       张杰 Jie Zhang (id:1274727)
       赵晓时 Xiaoshi Zhao (id:1310556)
       顾海平 Haiping Gu (id:1471551)
       罗礼贤 Bruce Law (id:1289542)
       罗义民 Norman Law (id:1316462)
       张冀 Ji Zhang (id:1327606)
       陶虹 Hong Tao (id:1015199)

◎简  介
  一座修建十年的隧道即将竣工之际,受全球地质变动影响,地裂、地震、山体滑坡、泥石流等一系列地质灾害呼啸而至,隧道与整个县城危在旦夕,“老洪”洪赟兵(黄志忠 饰)、“小洪”洪翼舟(朱一龙 饰)父子俩于绝境处挺身而出,他们如何与16万人度过这场生死危机?

  1. ##### MediaInfo ######
  2. General
  3. Unique ID                                : 160882416453785110370396296611474484875 (0x7908D38AD89544195977A7E5F0E8AE8B)
  4. Complete name                            : Cloudy.Mountain.2021.1080p.BluRay.x265.10bit-HomeHD.mkv
  5. Format                                   : Matroska
  6. Format version                           : Version 4
  7. File size                                : 5.02 GiB
  8. Duration                                 : 1 h 54 min
  9. Overall bit rate                         : 6 258 kb/s
  10. Encoded date                             : UTC 2022-05-29 03:40:57
  11. Writing application                      : mkvmerge v55.0.0 ('Waiting For Space') 64-bit
  12. Writing library                          : libebml v1.4.2 + libmatroska v1.6.4
  13. Video
  14. ID                                       : 1
  15. Format                                   : HEVC
  16. Format/Info                              : High Efficiency Video Coding
  17. Format profile                           : Main 10@L5@Main
  18. Codec ID                                 : V_MPEGH/ISO/HEVC
  19. Duration                                 : 1 h 54 min
  20. Bit rate                                 : 5 616 kb/s
  21. Width                                    : 1 920 pixels
  22. Height                                   : 964 pixels
  23. Display aspect ratio                     : 1.992
  24. Frame rate mode                          : Constant
  25. Frame rate                               : 24.000 FPS
  26. Color space                              : YUV
  27. Chroma subsampling                       : 4:2:0
  28. Bit depth                                : 10 bits
  29. Bits/(Pixel*Frame)                       : 0.126
  30. Stream size                              : 4.50 GiB (90%)
  31. Default                                  : Yes
  32. Forced                                   : No
  33. Audio
  34. ID                                       : 2
  35. Format                                   : AC-3
  36. Format/Info                              : Audio Coding 3
  37. Commercial name                          : Dolby Digital
  38. Codec ID                                 : A_AC3
  39. Duration                                 : 1 h 54 min
  40. Bit rate mode                            : Constant
  41. Bit rate                                 : 640 kb/s
  42. Channel(s)                               : 6 channels
  43. Channel layout                           : L R C LFE Ls Rs
  44. Sampling rate                            : 48.0 kHz
  45. Frame rate                               : 31.250 FPS (1536 SPF)
  46. Compression mode                         : Lossy
  47. Stream size                              : 525 MiB (10%)
  48. Title                                    : 粤语
  49. Language                                 : Chinese
  50. Service kind                             : Complete Main
  51. Default                                  : Yes
  52. Forced                                   : No
  53. Text #1
  54. ID                                       : 3
  55. Format                                   : UTF-8
  56. Codec ID                                 : S_TEXT/UTF8
  57. Codec ID/Info                            : UTF-8 Plain Text
  58. Duration                                 : 1 h 43 min
  59. Bit rate                                 : 36 b/s
  60. Count of elements                        : 1496
  61. Stream size                              : 27.8 KiB (0%)
  62. Title                                    : 简体
  63. Language                                 : Chinese
  64. Default                                  : Yes
  65. Forced                                   : No
  66. Text #2
  67. ID                                       : 4
  68. Format                                   : UTF-8
  69. Codec ID                                 : S_TEXT/UTF8
  70. Codec ID/Info                            : UTF-8 Plain Text
  71. Duration                                 : 1 h 45 min
  72. Bit rate                                 : 37 b/s
  73. Count of elements                        : 1514
  74. Stream size                              : 28.7 KiB (0%)
  75. Title                                    : 繁体
  76. Language                                 : Chinese
  77. Default                                  : No
  78. Forced                                   : No
复制代码




TAGS 动作 剧情 / 灾难

磁力链:
  • magnet:?xt=urn:btih:EED0403B80DED6FD12E2C229A93583A23CD707D1
上传的附件:
BT9527电影天堂 1、BT9527电影天堂提供的BT文件均来源于互联网抓取,只供网友学习交流、技术提升使用。
2、我们遵守BitTorrent点对点协议原则,任何版权问题请联系原资源发布商,我们不处理任何版权纠纷,谢谢!如有争议请联系邮箱:BT9527#hotmail.com(#换成@)
3、如果您发现某页面或地址有错误,请联系站长邮箱BT9527#hotmail.com(#换成@),我们会尽快处理。您的热心是对BT9527电影天堂最大的支持。
4、本站建议去正规影院观看电影以支持电影行业发展。
最新回复 (0)

你可以在 登录 or 注册 后,对此帖发表评论!

返回
发新帖