好人寥寥[中文字幕].A.Few.Good.Men.1992.2160p.UHD.Bluray.x265.Atmos.TrueHD.7.1-PAGE 21.48GB

版主小s 1月前 106



◎译  名 好人寥寥 / 义海雄风(港) / 军官与魔鬼(台) / 军人机密 / 义海雄心
◎片  名 A Few Good Men
◎年  代 1992
◎产  地 美国
◎类  别 剧情 / 悬疑 / 惊悚 / 犯罪
◎语  言 英语 / 法语
◎上映日期 1992-12-11
◎IMDb链接 https://www.imdb.com/title/tt0104257/
◎豆瓣评分 8.0/10 (12796人评价)
◎豆瓣链接 https://movie.douban.com/subject/1295260/
◎片  长 138 分钟
◎导  演 罗伯·莱纳 Rob Reiner (id:1031903)
◎编  剧 艾伦·索金 Aaron Sorkin (id:1017981)
◎演  员 汤姆·克鲁斯 Tom Cruise (id:1054435)
       杰克·尼科尔森 Jack Nicholson (id:1054528)
       黛米·摩尔 Demi Moore (id:1047988)
       凯文·贝肯 Kevin Bacon (id:1009260)
       基弗·萨瑟兰 Kiefer Sutherland (id:1053575)
       凯文·波拉克 Kevin Pollak (id:1041150)
       J·A·普雷斯顿 J.A. Preston (id:1353355)
       毛德·温切斯特 Maud Winchester (id:1343865)
       麦克·狄罗伦佐 Michael DeLorenzo (id:1040783)
       约书亚·马林纳 Joshua Malina (id:1123776)
       诺亚·怀尔 Noah Wyle (id:1017956)
       约翰·M·杰克逊 John M. Jackson (id:1106593)
       沃尔夫冈·巴迪森 Wolfgang Bodison (id:1061365)
       詹姆斯·马歇尔 James Marshall (id:1116895)
       小库珀·古丁 Cuba Gooding Jr. (id:1013794)
       山德·贝克利 Xander Berkeley (id:1036475)
       J·T·沃尔什 J.T. Walsh (id:1055936)
       安德鲁·沙因曼 Andrew Scheinman (id:1276019)
       罗伯·莱纳 Rob Reiner (id:1031903)
       罗伯特·理查森 Robert Richardson (id:1050019)
       罗伯特·利顿 Robert Leighton (id:1289761)
       珍妮特·希尔森 Janet Hirshenson (id:1286699)
       戴维·F·克拉森 David F. Klassen (id:1288673)
       格洛里亚·格雷斯汉 Gloria Gresham (id:1285438)
       林戴尔·奎尤 Lyndell Quiyou (id:1295089)
       爱德华·F.·恩里克斯 Edouard F. Henriques (id:1286452)
       恩佐·昂吉莱利 Enzo Angileri (id:1277286)
       Stephen Abrums Stephen Abrums (id:1276769)
       John E. Sullivan John E. Sullivan (id:1298626)
       罗伯特·斯特罗姆伯格 Robert Stromberg (id:1298560)

◎简  介
  在美国驻古巴关达那摩湾的海军基地,两名海军陆战队员道森和多尼被指控杀害了另一名士兵圣地亚哥。海军律师丹尼尔·卡菲(汤姆·克鲁斯 Tom Cruise 饰)和助手山姆被派接手此桩案件,他们调查到圣地亚哥曾希望调离基地,还举报过道森。卡菲本想进行庭外协调,争取两年刑期。然而 两名士兵坚持自己无罪,他们对圣地亚哥的行为是执行上级给他们下达的“红色条规”。所谓红色条规,就是一种军官默许的由士兵私下进行的训诫条规。                                       
                                    卡菲、山姆以及另一名女律师盖洛维(黛米·摩尔 Demi Moore 饰)组成辩方律师进行调查,而基地指挥官杰塞普上校(杰克·尼科尔森 Jack Nicholson 饰)是本案的关键人物,他拒绝了圣地亚哥的调离申请,对他下达了“红色条规”,事后私自篡改了飞行记录。卡菲虽然知道真相,却苦于证据不足,这种情况下若是指证杰塞普上校还会给自己带来麻烦。这场关...

◎获奖情况 (共9项)
  第65届奥斯卡金像奖 (1993)
  最佳影片(提名)
  最佳男配角(提名)
   └──杰克·尼科尔森 (id:1054528)
  最佳剪辑(提名)
   └──罗伯特·利顿 (id:1289761)
  最佳音响(提名)

  第50届金球奖 (1993)
  电影类 最佳剧情片(提名)
  电影类 最佳导演(提名)
   └──罗伯·莱纳 (id:1031903)
  电影类 剧情片最佳男主角(提名)
   └──汤姆·克鲁斯 (id:1054435)
  电影类 最佳男配角(提名)
   └──杰克·尼科尔森 (id:1054528)
  电影类 最佳编剧(提名)
   └──艾伦·索金 (id:1017981)

  1. ##### MediaInfo ######
  2. General
  3. Unique ID                                : 313701254052157775695239955860468426847 (0xEC00A9F3D94CD2EE930F1FCE34DA685F)
  4. Complete name                            : A.Few.Good.Men.1992.2160p.UHD.Bluray.x265.Atmos.TrueHD.7.1-PAGE.mkv
  5. Format                                   : Matroska
  6. Format version                           : Version 4
  7. File size                                : 21.5 GiB
  8. Duration                                 : 2 h 18 min
  9. Overall bit rate mode                    : Variable
  10. Overall bit rate                         : 22.3 Mb/s
  11. Encoded date                             : UTC 2022-05-27 06:25:52
  12. Writing application                      : mkvmerge v67.0.0 ('Under Stars') 64-bit
  13. Writing library                          : libebml v1.4.2 + libmatroska v1.6.4
  14. Cover                                    : Yes
  15. Attachments                              : cover.jpg
  16. Video
  17. ID                                       : 1
  18. Format                                   : HEVC
  19. Format/Info                              : High Efficiency Video Coding
  20. Format profile                           : Main 10@L5.1@High
  21. HDR format                               : SMPTE ST 2086, HDR10 compatible
  22. Codec ID                                 : V_MPEGH/ISO/HEVC
  23. Duration                                 : 2 h 18 min
  24. Bit rate                                 : 18.3 Mb/s
  25. Width                                    : 3 840 pixels
  26. Height                                   : 1 600 pixels
  27. Display aspect ratio                     : 2.40:1
  28. Frame rate mode                          : Constant
  29. Frame rate                               : 23.976 (24000/1001/53354) FPS
  30. Color space                              : YUV
  31. Chroma subsampling                       : 4:2:0
  32. Bit depth                                : 10 bits
  33. Bits/(Pixel*Frame)                       : 0.124
  34. Stream size                              : 17.6 GiB (82%)
  35. Writing library                          : x265 3.3+3-g8f8e332f1+29:[Windows][#Erg`Djh#][@Yuuki] made by @Dongfangbubai
  36. Encoding settings                        : rc=crf / crf=18.0000 / qcomp=0.70 / qpstep=4 / stats-write=0 / stats-read=0 / vbv-maxrate=160000 / vbv-bufsize=160000 / vbv-init=0.9 / crf-max=0.0 / crf-min=0.0 / no-lossless / no-cu-lossless / aq-mode=3 / aq-strength=0.80 / cbqpoffs=-3 / crqpoffs=-3 / ipratio=1.40 / pbratio=1.30 / psy-rd=2.00 / psy-rdoq=3.00 / deblock=-1:-1 / ref=5 / limit-refs=0 / no-limit-modes / bframes=8 / b-adapt=2 / bframe-bias=0 / b-pyramid / b-intra / weightp / weightb / min-keyint=23 / max-keyint=240 / rc-lookahead=60 / gop-lookahead=0 / NTMzNTQ=uuDQuD2mJt9fsCf / scenecut=40 / hist-scenecut=0 / radl=0 / max-cu-size=32 / min-cu-size=8 / me=3 / subme=4 / merange=25 / rdoq-level=2 / rd=4 / rdpenalty=1 / dynamic-rd=0.00 / no-rd-refine / ----- / no-cutree / no-sao / no-rect / no-amp / no-open-gop / wpp / pmode / pme / no-psnr / no-ssim / nr-intra=0 / nr-inter=0 / no-constrained-intra / no-strong-intra-smoothing / max-tu-size=32 / tu-inter-depth=2 / tu-intra-depth=2 / limit-tu=0 / qg-size=32 / qpmax=69 / qpmin=0 / ----- / cpuid=533541176575 / frame-threads=6 / numa-pools=54,- / log-level=2 / input-csp=1 / input-res=3840x1600 / interlace=0 / level-idc=0 / high-tier=1 / uhd-bd=0 / no-allow-non-conformance / repeat-headers / no-aud / hrd / info / hash=0 / no-temporal-layers / lookahead-slices=0 / no-splice / no-intra-refresh / no-ssim-rd / signhide / no-tskip / max-merge=3 / temporal-mvp / no-frame-dup / no-hme / no-analyze-src-pics / no-sao-non-deblock / selective-sao=0 / no-early-skip / no-rskip / no-fast-intra / no-tskip-fast / no-splitrd-skip / zone-count=0 / no-strict-cbr / no-rc-grain / no-const-vbv / sar=0 / overscan=0 / videoformat=5 / range=0 / colorprim=9 / transfer=16 / colormatrix=9 / chromaloc=0 / display-window=0 / master-display=G(13250,34500)B(7500,3000)R(34000,16000)WP(15635,16450)L(40000000,50) / cll=10000,424 / min-luma=0 / max-luma=1023 / log2-max-poc-lsb=8 / vui-timing-info / vui-hrd-info / slices=1 / no-opt-qp-pps / no-opt-ref-list-length-pps / no-multi-pass-opt-rps / scenecut-bias=0.05 / hist-threshold=0.01 / no-opt-cu-delta-qp / no-aq-motion / hdr10 / hdr10-opt / no-dhdr10-opt / no-idr-recovery-sei / analysis-reuse-level=0 / analysis-save-reuse-level=0 / analysis-load-reuse-level=0 / scale-factor=0 / refine-intra=0 / refine-inter=0 / refine-mv=1 / refine-ctu-distortion=0 / no-limit-sao / ctu-info=0 / no-lowpass-dct / refine-analysis-type=0 / copy-pic=1 / max-ausize-factor=1.0 / no-dynamic-refine / no-single-sei / no-hevc-aq / no-svt / no-field / qp-adaptation-range=1.00 / no-scenecut-aware-qpconformance-window-offsets / right=0 / bottom=0 / NTMzNTQ=
  37. Default                                  : Yes
  38. Forced                                   : No
  39. Color range                              : Limited
  40. Color primaries                          : BT.2020
  41. Transfer characteristics                 : PQ
  42. Matrix coefficients                      : BT.2020 non-constant
  43. Mastering display color primaries        : Display P3
  44. Mastering display luminance              : min: 0.0050 cd/m2, max: 4000 cd/m2
  45. Maximum Content Light Level              : 10000 cd/m2
  46. Maximum Frame-Average Light Level        : 424 cd/m2
  47. Audio
  48. ID                                       : 2
  49. Format                                   : MLP FBA 16-ch
  50. Format/Info                              : Meridian Lossless Packing FBA with 16-channel presentation
  51. Commercial name                          : Dolby TrueHD with Dolby Atmos
  52. Codec ID                                 : A_TRUEHD
  53. Duration                                 : 2 h 18 min
  54. Bit rate mode                            : Variable
  55. Bit rate                                 : 3 895 kb/s
  56. Maximum bit rate                         : 6 567 kb/s
  57. Channel(s)                               : 8 channels
  58. Channel layout                           : L R C LFE Ls Rs Lb Rb
  59. Sampling rate                            : 48.0 kHz
  60. Frame rate                               : 1 200.000 FPS (40 SPF)
  61. Compression mode                         : Lossless
  62. Stream size                              : 3.75 GiB (17%)
  63. Language                                 : English
  64. Default                                  : Yes
  65. Forced                                   : No
  66. Number of dynamic objects                : 11
  67. Bed channel count                        : 1 channel
  68. Bed channel configuration                : LFE
  69. Text #1
  70. ID                                       : 3
  71. Format                                   : PGS
  72. Muxing mode                              : zlib
  73. Codec ID                                 : S_HDMV/PGS
  74. Codec ID/Info                            : Picture based subtitle format used on BDs/HD-DVDs
  75. Duration                                 : 2 h 13 min
  76. Bit rate                                 : 47.6 kb/s
  77. Count of elements                        : 4204
  78. Stream size                              : 45.3 MiB (0%)
  79. Language                                 : Chinese
  80. Default                                  : Yes
  81. Forced                                   : No
  82. Text #2
  83. ID                                       : 4
  84. Format                                   : PGS
  85. Muxing mode                              : zlib
  86. Codec ID                                 : S_HDMV/PGS
  87. Codec ID/Info                            : Picture based subtitle format used on BDs/HD-DVDs
  88. Duration                                 : 2 h 13 min
  89. Bit rate                                 : 47.4 kb/s
  90. Count of elements                        : 4292
  91. Stream size                              : 45.1 MiB (0%)
  92. Language                                 : Chinese
  93. Default                                  : Yes
  94. Forced                                   : No


TAGS 剧情 惊悚 悬疑 犯罪 /

磁力链:
  • magnet:?xt=urn:btih:62E5C1D8086CCF81AF0D8D0D058F40695B25DCD5
上传的附件:
BT9527电影天堂 1、BT9527电影天堂提供的BT文件均来源于互联网抓取,只供网友学习交流、技术提升使用。
2、我们遵守BitTorrent点对点协议原则,任何版权问题请联系原资源发布商,我们不处理任何版权纠纷,谢谢!如有争议请联系邮箱:BT9527#hotmail.com(#换成@)
3、如果您发现某页面或地址有错误,请联系站长邮箱BT9527#hotmail.com(#换成@),我们会尽快处理。您的热心是对BT9527电影天堂最大的支持。
4、本站建议去正规影院观看电影以支持电影行业发展。
最新回复 (0)

你可以在 登录 or 注册 后,对此帖发表评论!

返回
发新帖