大内密探零零发[国语音轨/中英字幕].Forbidden.City.Cop.1996.BluRay.1080p.x265.10bit.2Audio-MiniHD 3.59GB

版主小s 4月前 317



◎译  名 大内密探零零发 / 鹿鼎大帝(台) / Forbidden City Cop / Dai lap mat tam 008
◎片  名 大內密探零零發
◎年  代 1996
◎产  地 中国香港
◎类  别 喜剧 / 动作 / 爱情 / 古装
◎语  言 粤语
◎上映日期 1996-02-16(中国香港)
◎IMDb链接 https://www.imdb.com/title/tt0116014/
◎豆瓣评分 8.0/10 (344098人评价)
◎豆瓣链接 https://movie.douban.com/subject/1329936/
◎片  长 89分钟
◎导  演 谷德昭 Vincent Kok (id:1025526)
       周星驰 Stephen Chow (id:1048026)
◎编  剧 劳文生 Man Sang Lo (id:1322128)
       谷德昭 Vincent Kok (id:1025526)
       周星驰 Stephen Chow (id:1048026)
◎演  员 周星驰 Stephen Chow (id:1048026)
       刘嘉玲 Carina Lau (id:1036905)
       李若彤 Carman Lee (id:1023476)
       罗家英 Kar-Ying Law (id:1108968)
       张达明 Tat-Ming Cheung (id:1274433)
       刘以达 Tats Lau (id:1034328)
       李力持 Lik-Chi Lee (id:1274246)
       江欣燕 Elvina Kong (id:1104138)
       苑琼丹 King-Tan Yuen (id:1274445)
       朱咪咪 Mimi Chu (id:1275715)
       李健仁 Kin-Yan Lee (id:1315575)
       袁祥仁 Cheung-Yan Yuen (id:1301574)
       袁信义 Shun-Yee Yuen (id:1301576)
       植敬雯 King-Man Chik (id:1315881)
       潘恒生 Hang-Sang Poon (id:1294721)
       谷德昭 Vincent Kok (id:1025526)
       文隽 Manfred Wong (id:1274823)
       黄老邪 Quinton Wong (id:1345683)
       黄一飞 Yut Fei Wong (id:1301215)
       查尔斯·沈 Charles Shen (id:1345685)
       吴育枢 Jackson Ng Yuk-Sue (id:1361260)
       王均康 Kwan Hong Wong (id:1358028)
       陈剑云 Kim-Wan Chan (id:1361831)
       欧锦棠 Stephen Au (id:1275712)
       叶伟信 Wilson Yip (id:1274472)
       黄志强 Kirk Wong (id:1301193)
       英德拉·利奇 Indra Leech (id:1345681)
       王英杰 Ying Git Wong (id:1342034)
       黄智强 Ji Keung Wong (id:1431206)
       谭镇渡 Tony Tam Chun-To (id:1417488)
       王晶 Jing Wong (id:1274331)
       向华强 Charles Heung (id:1037691)
       馮鳳珍 Rita Fung (id:1441554)
       刘以达 Tats Lau (id:1034328)
       顾嘉辉 Joseph Koo (id:1017256)
       商易 Yi Shang (id:1414560)
       邝志良 Chi-Leung Kwong (id:1289164)
       何剑雄 Cyrus Ho (id:1286709)
       刘嘉玲 Carina Lau (id:1036905)
       张叔平 William Chang (id:1274369)
       张世宏 Silver Cheung (id:1318916)
       关莉娜 Lee-na Kwan (id:1289154)
       田启文 Kai Man Tin (id:1315882)
       梁力之 Lik-Chi Leung (id:1433564)

◎简  介
  零零恭、零零喜、零零发(周星驰 饰)、零零财是宫廷四大高手,专职保卫皇帝(张达明 饰)的安全。虽号称四大高手之一,零零发实际上只会搞些小发明完全不会武功,某次因为未完成皇帝交办的捉拿江湖四大怪杰的任务,他被开除出宫。回家后,零零发开了一家妇科诊所,时常会用一些小发明讨得老婆(刘嘉玲 饰)心花怒放,日子也算怡然自乐。 金国以“天外飞仙”尸体为由将皇帝从宫中骗出,并伺机杀死了紧跟皇帝的三大高手,关键时刻,零零发用他发明的“直升机”和“机关枪”救皇帝一命。不死心的敌手随后派来名妓琴操(李若彤 饰)引诱零零发,零零发与老婆将计就计演起双簧。

  1. ##### MediaInfo ######
  2. General
  3. Unique ID                                : 212673039339822224132622819171178358376 (0x9FFF566546844CBE96DB15658AF3A668)
  4. Complete name                            : Forbidden.City.Cop.1996.BluRay.1080p.x265.10bit.2Audio-MiniHD.mkv
  5. Format                                   : Matroska
  6. Format version                           : Version 4
  7. File size                                : 3.59 GiB
  8. Duration                                 : 1 h 28 min
  9. Overall bit rate                         : 5 798 kb/s
  10. Encoded date                             : UTC 2017-03-31 12:06:49
  11. Writing application                      : mkvmerge v9.7.1 ('Pandemonium') 64bit
  12. Writing library                          : libebml v1.3.4 + libmatroska v1.4.5
  13. Video
  14. ID                                       : 1
  15. Format                                   : HEVC
  16. Format/Info                              : High Efficiency Video Coding
  17. Format profile                           : Main 10@L4@Main
  18. Codec ID                                 : V_MPEGH/ISO/HEVC
  19. Duration                                 : 1 h 28 min
  20. Bit rate                                 : 4 402 kb/s
  21. Width                                    : 1 920 pixels
  22. Height                                   : 1 080 pixels
  23. Display aspect ratio                     : 16:9
  24. Frame rate mode                          : Constant
  25. Frame rate                               : 24.000 FPS
  26. Color space                              : YUV
  27. Chroma subsampling                       : 4:2:0
  28. Bit depth                                : 10 bits
  29. Bits/(Pixel*Frame)                       : 0.088
  30. Stream size                              : 2.73 GiB (76%)
  31. Writing library                          : x265 2.3+24-a0eee4b41185:[Windows][GCC 6.3.0][64 bit] 10bit
  32. Encoding settings                        : cpuid=533541173503 / frame-threads=6 / numa-pools=36 / wpp / no-pmode / no-pme / no-psnr / no-ssim / log-level=2 / input-csp=1 / input-res=1920x1080 / interlace=0 / total-frames=127744 / level-idc=0 / high-tier=1 / uhd-bd=0 / ref=5 / no-allow-non-conformance / no-repeat-headers / annexb / no-aud / no-hrd / info / hash=0 / no-temporal-layers / no-open-gop / min-keyint=1 / keyint=360 / bframes=8 / b-adapt=2 / b-pyramid / bframe-bias=0 / rc-lookahead=60 / lookahead-slices=4 / NTMzNTQ=uuDQuD2mJt9fsCf / scenecut=40 / no-intra-refresh / ctu=32 / min-cu-size=8 / rect / no-amp / max-tu-size=16 / tu-inter-depth=2 / tu-intra-depth=2 / limit-tu=4 / rdoq-level=2 / dynamic-rd=0.00 / signhide / no-tskip / nr-intra=0 / nr-inter=0 / no-constrained-intra / no-strong-intra-smoothing / max-merge=3 / limit-refs=2 / limit-modes / me=3 / subme=5 / merange=25 / temporal-mvp / weightp / weightb / no-analyze-src-pics / deblock=-1:-1 / no-sao / no-sao-non-deblock / rd=4 / no-early-skip / rskip / no-fast-intra / no-tskip-fast / no-cu-lossless / b-intra / rdpenalty=1 / psy-rd=0.00 / psy-rdoq=5.00 / no-rd-refine / analysis-mode=0 / no-lossless / cbqpoffs=-2 / crqpoffs=-2 / rc=crf / crf=20.0 / qcomp=0.70 / qpstep=4 / stats-write=0 / stats-read=0 / ipratio=1.40 / pbratio=1.30 / aq-mode=2 / aq-strength=0.80 / cutree / zone-count=0 / no-strict-cbr / qg-size=16 / no-rc-grain / qpmax=69 / qpmin=0 / sar=0 / overscan=0 / videoformat=5 / range=0 / colorprim=1 / transfer=2 / colormatrix=2 / chromaloc=0 / display-window=0 / max-cll=0,0 / min-luma=0 / max-luma=1023 / log2-max-poc-lsb=8 / vui-timing-info / vui-hrd-info / slices=1 / opt-qp-pps / opt-ref-list-length-pps / no-multi-pass-opt-rps / scenecut-bias=0.05 / no-opt-cu-delta-qp / no-aq-motion / no-hdr / no-hdr-opt / refine-level=5
  33. Default                                  : Yes
  34. Forced                                   : No
  35. Color range                              : Limited
  36. Color primaries                          : BT.709
  37. Audio #1
  38. ID                                       : 2
  39. Format                                   : AC-3
  40. Format/Info                              : Audio Coding 3
  41. Commercial name                          : Dolby Digital
  42. Codec ID                                 : A_AC3
  43. Duration                                 : 1 h 28 min
  44. Bit rate mode                            : Constant
  45. Bit rate                                 : 640 kb/s
  46. Channel(s)                               : 6 channels
  47. Channel layout                           : L R C LFE Ls Rs
  48. Sampling rate                            : 48.0 kHz
  49. Frame rate                               : 31.250 FPS (1536 SPF)
  50. Compression mode                         : Lossy
  51. Stream size                              : 406 MiB (11%)
  52. Language                                 : Chinese
  53. Service kind                             : Complete Main
  54. Default                                  : Yes
  55. Forced                                   : No
  56. Audio #2
  57. ID                                       : 3
  58. Format                                   : AC-3
  59. Format/Info                              : Audio Coding 3
  60. Commercial name                          : Dolby Digital
  61. Codec ID                                 : A_AC3
  62. Duration                                 : 1 h 28 min
  63. Bit rate mode                            : Constant
  64. Bit rate                                 : 640 kb/s
  65. Channel(s)                               : 6 channels
  66. Channel layout                           : L R C LFE Ls Rs
  67. Sampling rate                            : 48.0 kHz
  68. Frame rate                               : 31.250 FPS (1536 SPF)
  69. Compression mode                         : Lossy
  70. Stream size                              : 406 MiB (11%)
  71. Language                                 : Chinese
  72. Service kind                             : Complete Main
  73. Default                                  : No
  74. Forced                                   : No
  75. Text #1
  76. ID                                       : 4
  77. Format                                   : PGS
  78. Muxing mode                              : zlib
  79. Codec ID                                 : S_HDMV/PGS
  80. Codec ID/Info                            : Picture based subtitle format used on BDs/HD-DVDs
  81. Language                                 : Chinese
  82. Default                                  : Yes
  83. Forced                                   : No
  84. Text #2
  85. ID                                       : 5
  86. Format                                   : PGS
  87. Muxing mode                              : zlib
  88. Codec ID                                 : S_HDMV/PGS
  89. Codec ID/Info                            : Picture based subtitle format used on BDs/HD-DVDs
  90. Language                                 : English
  91. Default                                  : No
  92. Forced                                   : No
  93. Menu
  94. 00:00:00.000                             : en:Chapter 01
  95. 00:06:13.541                             : en:Chapter 02
  96. 00:12:46.625                             : en:Chapter 03
  97. 00:16:10.666                             : en:Chapter 04
  98. 00:21:50.625                             : en:Chapter 05
  99. 00:23:42.666                             : en:Chapter 06
  100. 00:29:23.750                             : en:Chapter 07
  101. 00:32:56.833                             : en:Chapter 08
  102. 00:36:22.916                             : en:Chapter 09
  103. 00:39:31.000                             : en:Chapter 10
  104. 00:44:12.375                             : en:Chapter 11
  105. 00:49:20.875                             : en:Chapter 12
  106. 00:54:20.583                             : en:Chapter 13
  107. 00:56:00.708                             : en:Chapter 14
  108. 01:00:39.250                             : en:Chapter 15
  109. 01:06:12.750                             : en:Chapter 16
  110. 01:09:21.750                             : en:Chapter 17
  111. 01:14:57.791                             : en:Chapter 18
  112. 01:21:17.958                             : en:Chapter 19
  113. 01:25:58.416                             : en:Chapter 20
复制代码




TAGS 动作 喜剧 古装 爱情 /

磁力链:
  • magnet:?xt=urn:btih:7C6CDE80CA30789EA4AAB1D468ADA318D1B9BD6B
上传的附件:
BT9527电影天堂 1、BT9527电影天堂提供的BT文件均来源于互联网抓取,只供网友学习交流、技术提升使用。
2、我们遵守BitTorrent点对点协议原则,任何版权问题请联系原资源发布商,我们不处理任何版权纠纷,谢谢!如有争议请联系邮箱:BT9527#hotmail.com(#换成@)
3、如果您发现某页面或地址有错误,请联系站长邮箱BT9527#hotmail.com(#换成@),我们会尽快处理。您的热心是对BT9527电影天堂最大的支持。
4、本站建议去正规影院观看电影以支持电影行业发展。
最新回复 (0)

你可以在 登录 or 注册 后,对此帖发表评论!

返回