大佬[中英字幕].Brother.2000.BluRay.1080p.x265.10bit-MiniHD 6.44GB

版主小s 1月前 290



◎译  名 大佬 / 四海兄弟 / 兄弟
◎片  名 Brother
◎年  代 2000
◎产  地 日本 / 英国 / 美国
◎类  别 剧情 / 惊悚 / 犯罪
◎语  言 英语 / 日语 / 意大利语 / 西班牙语
◎上映日期 2000-09-09(威尼斯电影节) / 2001-01-27(日本)
◎IMDb链接 https://www.imdb.com/title/tt0222851/
◎豆瓣评分 8.4/10 (35684人评价)
◎豆瓣链接 https://movie.douban.com/subject/1294181/
◎片  长 114分钟
◎导  演 北野武 Takeshi Kitano (id:1054423)
◎编  剧 北野武 Takeshi Kitano (id:1054423)
◎演  员 北野武 Takeshi Kitano (id:1054423)
       欧玛·艾普斯 Omar Epps (id:1009316)
       真木藏人 Claude Maki (id:1290796)
       加藤雅也 Masaya Kat? (id:1111282)
       寺岛进 Susumu Terajima (id:1041631)
       罗伊尔·沃特金 Royale Watkins (id:1163891)
       隆巴多·博伊尔 Lombardo Boyar (id:1077918)
       大杉涟 Ren Ohsugi (id:1134227)
       石桥凌 Ryo Ishibashi (id:1009702)
       詹姆斯·繁田 James Shigeta (id:1143689)
       渡哲也 Tetsuya Watari (id:1016994)
       塔缇娜·阿里 Tatyana Ali (id:1004640)
       大竹真 Makoto Otake (id:1312825)
       奥村公延 K?en Okumura (id:1127559)
       六平直政 Naomasa Musaka (id:1003638)
       片濑梨乃 Rino Katase (id:1046508)
       安托万·塔纳 Antwon Tanner (id:1160318)
       约瑟夫·劳格诺 Joseph Ragno (id:1343306)
       罗伯特·科瓦吕比亚 Robert Covarrubias (id:1074663)
       阿尔·维森特 Al Vicente (id:1059635)
       布拉德利·杰伊·莱斯利 Bradley Jay Lesley (id:1115794)
       洛博·塞巴斯蒂安 Lobo Sebastian (id:1406801)
       屈丝苔·奈特 Tuesday Knight (id:1113003)
       莫汉达斯·德维兹 Mohandas Deweese (id:1282332)
       阿莫里·诺拉斯科 Amaury Nolasco (id:1013860)
       Tad Horino Tad Horino (id:1094025)
       Alvin Ing Alvin Ing (id:1107577)
       约翰·阿普雷亚 John Aprea (id:1032341)
       曼尼·佩雷斯 Manny Perez (id:1048272)
       Eddie Garcia Eddie Garcia (id:1284494)
       Darryl M. Bell Darryl M. Bell (id:1065880)
       井上英治 Eiji Inoue (id:1421934)
       吉奥夫·米德 Geoff Meed (id:1016752)
       仁科贵 Takashi Nishina (id:1349821)
       诺尔·古格雷米 Noel Gugliemi (id:1319474)
       Miguel Mas Miguel Mas (id:1177626)
       森田则之 Pat Morita (id:1009235)
       小托马斯·罗萨莱斯 Thomas Rosales Jr. (id:1143150)
       清水伸 Shin Shimizu (id:1046799)
       富坚真 Makoto Togashi (id:1317208)
       Ann Carli Ann Carli (id:1276513)
       久石让 Joe Hisaishi (id:1035647)
       柳岛克己 Katsumi Yanagijima (id:1301399)
       北野武 Takeshi Kitano (id:1054423)
       太田义则 Yoshinori ?ta (id:1293596)
       Robi Reed-Humes Robi Reed-Humes (id:1295374)
       矶田典宏 Norihiro Isoda (id:1287410)
       朱迪·默多克 Judy Murdock (id:1292738)
       星野晃 Hoshino Aki (id:1356820)

◎简  介
  在黑帮争斗上失败了的山本(北野武饰),走投无路只能去找远在美国洛杉矶的弟弟阿键(真木藏人饰)。在言语不通的陌生城市里,山本找到了弟弟,但他已经成了不务正业的毒品贩子。                                    
                                必然地,他们卷入黑帮仇杀、势力争斗当中,山本凭着心狠手辣,冷静果断,再身边有忠诚的手下加藤(寺岛进饰)以及黑人丹尼(欧玛?艾普斯饰),剿灭墨西哥贩毒党,不断壮大自己的地盘,四处挑战其他帮会,还拉拢一大黑帮头领白濑(加藤雅也饰)的甘心加盟。但是黑手党已经将目标瞄准了他们,一场血雨腥风的恶斗在所难免。

  1. ##### MediaInfo ######
  2. General
  3. Unique ID                                : 214857925304165965399357948482443441491 (0xA1A42197308CAB1390533DE12AEA7553)
  4. Complete name                            : Brother.2000.BluRay.1080p.x265.10bit-MiniHD.mkv
  5. Format                                   : Matroska
  6. Format version                           : Version 4
  7. File size                                : 6.44 GiB
  8. Duration                                 : 1 h 53 min
  9. Overall bit rate                         : 8 137 kb/s
  10. Encoded date                             : UTC 2017-07-17 06:55:47
  11. Writing application                      : mkvmerge v11.0.0 ('Alive') 64bit
  12. Writing library                          : libebml v1.3.4 + libmatroska v1.4.5
  13. Video
  14. ID                                       : 1
  15. Format                                   : HEVC
  16. Format/Info                              : High Efficiency Video Coding
  17. Codec ID                                 : V_MPEGH/ISO/HEVC
  18. Duration                                 : 1 h 53 min
  19. Bit rate                                 : 7 335 kb/s
  20. Width                                    : 1 920 pixels
  21. Height                                   : 1 038 pixels
  22. Display aspect ratio                     : 1.85:1
  23. Frame rate mode                          : Constant
  24. Frame rate                               : 24.000 FPS
  25. Bits/(Pixel*Frame)                       : 0.153
  26. Stream size                              : 5.81 GiB (90%)
  27. Default                                  : Yes
  28. Forced                                   : No
  29. Audio
  30. ID                                       : 2
  31. Format                                   : AC-3
  32. Format/Info                              : Audio Coding 3
  33. Commercial name                          : Dolby Digital
  34. Codec ID                                 : A_AC3
  35. Duration                                 : 1 h 53 min
  36. Bit rate mode                            : Constant
  37. Bit rate                                 : 640 kb/s
  38. Channel(s)                               : 6 channels
  39. Channel layout                           : L R C LFE Ls Rs
  40. Sampling rate                            : 48.0 kHz
  41. Frame rate                               : 31.250 FPS (1536 SPF)
  42. Compression mode                         : Lossy
  43. Stream size                              : 519 MiB (8%)
  44. Language                                 : English
  45. Service kind                             : Complete Main
  46. Default                                  : Yes
  47. Forced                                   : No
  48. Text #1
  49. ID                                       : 3
  50. Format                                   : PGS
  51. Muxing mode                              : zlib
  52. Codec ID                                 : S_HDMV/PGS
  53. Codec ID/Info                            : Picture based subtitle format used on BDs/HD-DVDs
  54. Language                                 : Chinese
  55. Default                                  : Yes
  56. Forced                                   : No
  57. Text #2
  58. ID                                       : 4
  59. Format                                   : PGS
  60. Muxing mode                              : zlib
  61. Codec ID                                 : S_HDMV/PGS
  62. Codec ID/Info                            : Picture based subtitle format used on BDs/HD-DVDs
  63. Language                                 : Chinese
  64. Default                                  : No
  65. Forced                                   : No
  66. Text #3
  67. ID                                       : 5
  68. Format                                   : PGS
  69. Muxing mode                              : zlib
  70. Codec ID                                 : S_HDMV/PGS
  71. Codec ID/Info                            : Picture based subtitle format used on BDs/HD-DVDs
  72. Language                                 : English
  73. Default                                  : No
  74. Forced                                   : No
  75. Menu
  76. 00:00:00.000                             : en:Chapter 01
  77. 00:04:46.000                             : en:Chapter 02
  78. 00:09:48.541                             : en:Chapter 03
  79. 00:15:12.875                             : en:Chapter 04
  80. 00:20:55.625                             : en:Chapter 05
  81. 00:27:58.041                             : en:Chapter 06
  82. 00:34:25.583                             : en:Chapter 07
  83. 00:43:21.916                             : en:Chapter 08
  84. 00:51:26.125                             : en:Chapter 09
  85. 00:58:47.291                             : en:Chapter 10
  86. 01:07:25.000                             : en:Chapter 11
  87. 01:14:04.625                             : en:Chapter 12
  88. 01:22:49.708                             : en:Chapter 13
  89. 01:32:15.083                             : en:Chapter 14
  90. 01:41:43.125                             : en:Chapter 15
  91. 01:48:46.500                             : en:Chapter 16
复制代码




TAGS 剧情 惊悚 犯罪 /

磁力链:
  • magnet:?xt=urn:btih:5018F46763D9BABE3125248BF22194B147311E5B
上传的附件:
BT9527电影天堂 1、BT9527电影天堂提供的BT文件均来源于互联网抓取,只供网友学习交流、技术提升使用。
2、我们遵守BitTorrent点对点协议原则,任何版权问题请联系原资源发布商,我们不处理任何版权纠纷,谢谢!如有争议请联系邮箱:BT9527#hotmail.com(#换成@)
3、如果您发现某页面或地址有错误,请联系站长邮箱BT9527#hotmail.com(#换成@),我们会尽快处理。您的热心是对BT9527电影天堂最大的支持。
4、本站建议去正规影院观看电影以支持电影行业发展。
最新回复 (0)

你可以在 登录 or 注册 后,对此帖发表评论!

返回
发新帖