复仇行动[简繁英字幕].Acts.Of.Vengeance.2017.BluRay.1080p.x265.10bit-MiniHD 4.16GB

版主小s 1月前 126



◎译  名 复仇行动 / Stoic
◎片  名 Acts Of Vengeance
◎年  代 2017
◎产  地 保加利亚 / 美国
◎类  别 剧情 / 动作
◎语  言 英语
◎上映日期 2017-10-27(美国)
◎IMDb链接 https://www.imdb.com/title/tt6288694/
◎豆瓣评分 5.7/10 (1635人评价)
◎豆瓣链接 https://movie.douban.com/subject/26957198/
◎片  长 87分钟
◎导  演 艾萨克·佛罗伦汀 Isaac Florentine (id:1319001)
◎编  剧 马特·韦纳 Matt Venne (id:1335480)
◎演  员 安东尼奥·班德拉斯 Antonio Banderas (id:1022582)
       卡尔·厄本 Karl Urban (id:1017903)
       帕斯·贝加 Paz Vega (id:1025136)
       克里斯蒂娜·塞拉菲尼 Cristina Serafini (id:1336923)
       阿塔纳斯·斯雷布雷夫 Atanas Srebrev (id:1195460)
       欧文·戴维斯 Owen Davis (id:1427391)
       克林特·戴尔 Clint Dyer (id:1041733)
       艾萨克·佛罗伦汀 Isaac Florentine (id:1319001)
       罗伯特·福斯特 Robert Forster (id:1055150)
       蒂姆·曼 Tim Man (id:1173948)
       维利斯拉夫·帕夫洛夫 Velislav Pavlov (id:1376373)
       大卫·樱井 David Sakurai (id:1010775)
       乔纳森·斯卡奇 Johnathon Schaech (id:1049636)
       马克·史密斯 Mark Rhino Smith (id:1175204)
       莱乔·瓦斯列夫 Raicho Vasilev (id:1154553)
       格雷丝·万 Grace Wan (id:1228839)

◎简  介
  安东尼奥·班德拉斯将在这部电影中饰演一位花言巧语的律师,由于妻女遇害,他不得不改造自己的身体并保持沉默来找到凶手,实施复仇。

  1. ##### MediaInfo ######
  2. General
  3. Unique ID                                : 203662108918076395286387634497206055659 (0x9937E5399AF7DF8185FA01DBBB3F72EB)
  4. Complete name                            : Acts.Of.Vengeance.2017.BluRay.1080p.x265.10bit-MiniHD.mkv
  5. Format                                   : Matroska
  6. Format version                           : Version 4
  7. File size                                : 4.16 GiB
  8. Duration                                 : 1 h 27 min
  9. Overall bit rate                         : 6 823 kb/s
  10. Encoded date                             : UTC 2017-12-01 06:30:57
  11. Writing application                      : mkvmerge v15.0.0 ('Duel with the Devil') 32-bit
  12. Writing library                          : libebml v1.3.5 + libmatroska v1.4.5
  13. Video
  14. ID                                       : 1
  15. Format                                   : HEVC
  16. Format/Info                              : High Efficiency Video Coding
  17. Format profile                           : Main 10@L4@Main
  18. Codec ID                                 : V_MPEGH/ISO/HEVC
  19. Duration                                 : 1 h 27 min
  20. Bit rate                                 : 6 141 kb/s
  21. Width                                    : 1 920 pixels
  22. Height                                   : 1 040 pixels
  23. Display aspect ratio                     : 1.85:1
  24. Frame rate mode                          : Constant
  25. Frame rate                               : 23.976 (24000/1001/53354) FPS
  26. Color space                              : YUV
  27. Chroma subsampling                       : 4:2:0
  28. Bit depth                                : 10 bits
  29. Bits/(Pixel*Frame)                       : 0.128
  30. Stream size                              : 3.75 GiB (90%)
  31. Title                                    : Acts.Of.Vengeance.2017.BluRay.1080p.x265.10bit.MNHD-FRDS
  32. Writing library                          : x265 2.2+2-998d4520d1cf:[Windows][GCC 6.2.0][64 bit] 10bit
  33. Encoding settings                        : cpuid=533541173503 / frame-threads=5 / numa-pools=16 / wpp / no-pmode / no-pme / no-psnr / no-ssim / log-level=2 / input-csp=1 / input-res=1920x1040 / interlace=0 / total-frames=125641 / level-idc=0 / high-tier=1 / uhd-bd=0 / ref=5 / no-allow-non-conformance / no-repeat-headers / annexb / no-aud / no-hrd / info / hash=0 / no-temporal-layers / no-open-gop / min-keyint=1 / keyint=360 / bframes=8 / b-adapt=2 / b-pyramid / bframe-bias=0 / rc-lookahead=60 / lookahead-slices=4 / NTMzNTQ=uuDQuD2mJt9fsCf / scenecut=40 / no-intra-refresh / ctu=32 / min-cu-size=8 / rect / no-amp / max-tu-size=16 / tu-inter-depth=2 / tu-intra-depth=2 / limit-tu=0 / rdoq-level=2 / signhide / no-tskip / nr-intra=0 / nr-inter=0 / no-constrained-intra / no-strong-intra-smoothing / max-merge=3 / limit-refs=3 / limit-modes / me=3 / subme=5 / merange=25 / temporal-mvp / weightp / weightb / no-analyze-src-pics / deblock=-1:-1 / no-sao / no-sao-non-deblock / rd=4 / no-early-skip / rskip / no-fast-intra / no-tskip-fast / no-cu-lossless / b-intra / rdpenalty=1 / psy-rd=2.00 / psy-rdoq=5.00 / no-rd-refine / analysis-mode=0 / no-lossless / cbqpoffs=-2 / crqpoffs=-2 / rc=crf / crf=17.3 / qcomp=0.70 / qpstep=4 / stats-write=0 / stats-read=0 / ipratio=1.40 / pbratio=1.30 / aq-mode=1 / aq-strength=0.80 / cutree / zone-count=0 / no-strict-cbr / qg-size=16 / no-rc-grain / qpmax=69 / qpmin=0 / sar=1 / overscan=0 / videoformat=5 / range=0 / colorprim=1 / transfer=2 / colormatrix=2 / chromaloc=0 / display-window=0 / max-cll=0,0 / min-luma=0 / max-luma=1023 / log2-max-poc-lsb=8 / vui-timing-info / vui-hrd-info / slices=1 / opt-qp-pps / opt-ref-list-length-pps / no-multi-pass-opt-rps / scenecut-bias=0.05
  34. Language                                 : English
  35. Default                                  : Yes
  36. Forced                                   : No
  37. Color range                              : Limited
  38. Color primaries                          : BT.709
  39. Audio
  40. ID                                       : 2
  41. Format                                   : AC-3
  42. Format/Info                              : Audio Coding 3
  43. Commercial name                          : Dolby Digital
  44. Codec ID                                 : A_AC3
  45. Duration                                 : 1 h 27 min
  46. Bit rate mode                            : Constant
  47. Bit rate                                 : 640 kb/s
  48. Channel(s)                               : 6 channels
  49. Channel layout                           : L R C LFE Ls Rs
  50. Sampling rate                            : 48.0 kHz
  51. Frame rate                               : 31.250 FPS (1536 SPF)
  52. Compression mode                         : Lossy
  53. Stream size                              : 400 MiB (9%)
  54. Title                                    : English DD 5.1 @640 Kbps
  55. Language                                 : English
  56. Service kind                             : Complete Main
  57. Default                                  : Yes
  58. Forced                                   : No
  59. Text #1
  60. ID                                       : 3
  61. Format                                   : PGS
  62. Muxing mode                              : zlib
  63. Codec ID                                 : S_HDMV/PGS
  64. Codec ID/Info                            : Picture based subtitle format used on BDs/HD-DVDs
  65. Duration                                 : 1 h 21 min
  66. Bit rate                                 : 18.5 kb/s
  67. Count of elements                        : 1348
  68. Stream size                              : 10.8 MiB (0%)
  69. Title                                    : ENG/PGS
  70. Language                                 : English
  71. Default                                  : Yes
  72. Forced                                   : No
  73. Text #2
  74. ID                                       : 4
  75. Format                                   : PGS
  76. Muxing mode                              : zlib
  77. Codec ID                                 : S_HDMV/PGS
  78. Codec ID/Info                            : Picture based subtitle format used on BDs/HD-DVDs
  79. Duration                                 : 1 h 22 min
  80. Bit rate                                 : 13.3 kb/s
  81. Count of elements                        : 746
  82. Stream size                              : 7.83 MiB (0%)
  83. Title                                    : CHS/PGS
  84. Language                                 : Chinese
  85. Default                                  : No
  86. Forced                                   : No
  87. Text #3
  88. ID                                       : 5
  89. Format                                   : PGS
  90. Muxing mode                              : zlib
  91. Codec ID                                 : S_HDMV/PGS
  92. Codec ID/Info                            : Picture based subtitle format used on BDs/HD-DVDs
  93. Duration                                 : 1 h 22 min
  94. Bit rate                                 : 14.1 kb/s
  95. Count of elements                        : 746
  96. Stream size                              : 8.27 MiB (0%)
  97. Title                                    : CHT/PGS
  98. Language                                 : Chinese
  99. Default                                  : No
  100. Forced                                   : No
  101. Text #4
  102. ID                                       : 6
  103. Format                                   : PGS
  104. Muxing mode                              : zlib
  105. Codec ID                                 : S_HDMV/PGS
  106. Codec ID/Info                            : Picture based subtitle format used on BDs/HD-DVDs
  107. Duration                                 : 1 h 22 min
  108. Bit rate                                 : 22.8 kb/s
  109. Count of elements                        : 746
  110. Stream size                              : 13.4 MiB (0%)
  111. Title                                    : CHS&ENG/PGS
  112. Language                                 : Chinese
  113. Default                                  : No
  114. Forced                                   : No
  115. Text #5
  116. ID                                       : 7
  117. Format                                   : PGS
  118. Muxing mode                              : zlib
  119. Codec ID                                 : S_HDMV/PGS
  120. Codec ID/Info                            : Picture based subtitle format used on BDs/HD-DVDs
  121. Duration                                 : 1 h 22 min
  122. Bit rate                                 : 23.5 kb/s
  123. Count of elements                        : 746
  124. Stream size                              : 13.8 MiB (0%)
  125. Title                                    : CHT&ENG/PGS
  126. Language                                 : Chinese
  127. Default                                  : No
  128. Forced                                   : No
  129. Menu
  130. 00:00:00.000                             : en:00:00:00.000
  131. 00:05:16.316                             : en:00:05:16.316
  132. 00:11:00.451                             : en:00:11:00.451
  133. 00:17:49.318                             : en:00:17:49.318
  134. 00:24:11.450                             : en:00:24:11.450
  135. 00:29:07.037                             : en:00:29:07.037
  136. 00:35:14.612                             : en:00:35:14.612
  137. 00:39:12.308                             : en:00:39:12.308
  138. 00:46:29.286                             : en:00:46:29.286
  139. 00:52:56.590                             : en:00:52:56.590
  140. 01:00:37.634                             : en:01:00:37.634
  141. 01:05:28.091                             : en:01:05:28.091
  142. 01:09:15.902                             : en:01:09:15.902
  143. 01:13:51.969                             : en:01:13:51.969
  144. 01:21:32.554                             : en:01:21:32.554
  145. 01:23:56.031                             : en:01:23:56.031
复制代码




TAGS 动作 剧情 /

磁力链:
  • magnet:?xt=urn:btih:4BDED069616EAFF2B566BC4AD6A4DB3B6273843B
上传的附件:
BT9527电影天堂 1、BT9527电影天堂提供的BT文件均来源于互联网抓取,只供网友学习交流、技术提升使用。
2、我们遵守BitTorrent点对点协议原则,任何版权问题请联系原资源发布商,我们不处理任何版权纠纷,谢谢!如有争议请联系邮箱:BT9527#hotmail.com(#换成@)
3、如果您发现某页面或地址有错误,请联系站长邮箱BT9527#hotmail.com(#换成@),我们会尽快处理。您的热心是对BT9527电影天堂最大的支持。
4、本站建议去正规影院观看电影以支持电影行业发展。
最新回复 (0)

你可以在 登录 or 注册 后,对此帖发表评论!

返回
发新帖