墙里的声音[中英字幕].Voice.from.the.Stone.2017.BluRay.1080p.x265.10bit-MiniHD 2.18GB

版主小s 1月前 144

◎译 名 墙里的声音 / 谜之阴(台) / 石头里的声音 / 石头会说话

◎片 名 Voice from the Stone

◎年 代 2017

◎产 地 美国 / 意大利

◎类 别 剧情 / 悬疑 / 惊悚

◎语 言 英语

◎上映日期 2017-04-28(美国)

◎IMDb链接 https://www.imdb.com/title/tt1544608/

◎豆瓣评分 5.4/10 (2976人评价)

◎豆瓣链接 https://movie.douban.com/subject/4734756/

◎片 长 94分钟

◎导 演 艾瑞克·D·豪威尔 Eric D. Howell (id:1318510)

◎编 剧 西尔维奥·拉福 Silvio Raffo (id:1373596)

安德鲁·肖 Andrew Shaw (id:1373597)

◎演 员 艾米莉亚·克拉克 Emilia Clarke (id:1314668)

马尔顿·索克斯 Marton Csokas (id:1009284)

卡特琳娜·莫里诺 Caterina Murino (id:1049755)

凯特·林德尔 Kate Linder (id:1116995)

丽莎·佳丝托妮 Lisa Gastoni (id:1102310)

雷莫·吉罗内 Remo Girone (id:1037400)

爱德华·德林 Edward Dring (id:1370372)

吉皮耶罗·朱迪卡 Giampiero Judica (id:1373598)

妮科尔·卡德达 Nicole Cadeddu (id:1373599)

安东内拉·布里蒂 Antonella Britti (id:1373600)

◎简 介

故事设定在20世纪50年代在意大利托斯卡纳一处偏僻的别墅。艾米莉亚·克拉克在片中饰演一名叫Verena的护士,被聘来照顾因失去生母而不再开口说话的少年继承人,希望帮助他恢复沟通。

但随着Verena对少主的一步步观察,她开始发现不妥,似乎有一种强大而诡秘的诅咒在控制着这个小孩子,而这份诅咒正是来自别墅中的一面石墙。

  1. ##### MediaInfo ######

  2. General

  3. Unique ID : 179476963898546111100502477997482486699 (0x87060183513501919CE63F7A6FD4ABAB)

  4. Complete name : Voice.from.the.Stone.2017.BluRay.1080p.x265.10bit-MiniHD.mkv

  5. Format : Matroska

  6. Format version : Version 4

  7. File size : 2.18 GiB

  8. Duration : 1 h 30 min

  9. Overall bit rate : 3 458 kb/s

  10. Encoded date : UTC 2017-05-25 06:58:25

  11. Writing application : mkvmerge v11.0.0 ('Alive') 64bit

  12. Writing library : libebml v1.3.4 + libmatroska v1.4.5

  13. Video

  14. ID : 1

  15. Format : HEVC

  16. Format/Info : High Efficiency Video Coding

  17. Codec ID : V_MPEGH/ISO/HEVC

  18. Duration : 1 h 30 min

  19. Bit rate : 2 780 kb/s

  20. Width : 1 920 pixels

  21. Height : 804 pixels

  22. Display aspect ratio : 2.40:1

  23. Frame rate mode : Constant

  24. Frame rate : 23.976 (24000/1001/53354) FPS

  25. Bits/(Pixel*Frame) : 0.075

  26. Stream size : 1.75 GiB (80%)

  27. Default : Yes

  28. Forced : No

  29. Audio

  30. ID : 2

  31. Format : AC-3

  32. Format/Info : Audio Coding 3

  33. Commercial name : Dolby Digital

  34. Codec ID : A_AC3

  35. Duration : 1 h 30 min

  36. Bit rate mode : Constant

  37. Bit rate : 640 kb/s

  38. Channel(s) : 6 channels

  39. Channel layout : L R C LFE Ls Rs

  40. Sampling rate : 48.0 kHz

  41. Frame rate : 31.250 FPS (1536 SPF)

  42. Compression mode : Lossy

  43. Stream size : 413 MiB (18%)

  44. Language : English

  45. Service kind : Complete Main

  46. Default : Yes

  47. Forced : No

  48. Text #1

  49. ID : 3

  50. Format : PGS

  51. Muxing mode : zlib

  52. Codec ID : S_HDMV/PGS

  53. Codec ID/Info : Picture based subtitle format used on BDs/HD-DVDs

  54. Duration : 1 h 29 min

  55. Bit rate : 7 674 b/s

  56. Count of elements : 1650

  57. Stream size : 4.93 MiB (0%)

  58. Language : English

  59. Default : Yes

  60. Forced : No

  61. Text #2

  62. ID : 4

  63. Format : PGS

  64. Muxing mode : zlib

  65. Codec ID : S_HDMV/PGS

  66. Codec ID/Info : Picture based subtitle format used on BDs/HD-DVDs

  67. Duration : 1 h 24 min

  68. Bit rate : 5 797 b/s

  69. Count of elements : 1023

  70. Stream size : 3.51 MiB (0%)

  71. Language : Chinese

  72. Default : No

  73. Forced : No

  74. Text #3

  75. ID : 5

  76. Format : PGS

  77. Muxing mode : zlib

  78. Codec ID : S_HDMV/PGS

  79. Codec ID/Info : Picture based subtitle format used on BDs/HD-DVDs

  80. Duration : 1 h 24 min

  81. Bit rate : 5 984 b/s

  82. Count of elements : 1023

  83. Stream size : 3.62 MiB (0%)

  84. Language : Chinese

  85. Default : No

  86. Forced : No

  87. Text #4

  88. ID : 6

  89. Format : PGS

  90. Muxing mode : zlib

  91. Codec ID : S_HDMV/PGS

  92. Codec ID/Info : Picture based subtitle format used on BDs/HD-DVDs

  93. Duration : 1 h 24 min

  94. Bit rate : 9 549 b/s

  95. Count of elements : 1029

  96. Stream size : 5.77 MiB (0%)

  97. Language : Chinese

  98. Default : No

  99. Forced : No

  100. Text #5

  101. ID : 7

  102. Format : PGS

  103. Muxing mode : zlib

  104. Codec ID : S_HDMV/PGS

  105. Codec ID/Info : Picture based subtitle format used on BDs/HD-DVDs

  106. Duration : 1 h 24 min

  107. Bit rate : 9 667 b/s

  108. Count of elements : 1029

  109. Stream size : 5.84 MiB (0%)

  110. Language : Chinese

  111. Default : No

  112. Forced : No


复制代码


TAGS 剧情 惊悚 悬疑 /

磁力链:
  • magnet:?xt=urn:btih:C0DED9FA70A5EA9EEB9C815154F972CDF70DAB0A
上传的附件:
BT9527电影天堂 1、BT9527电影天堂提供的BT文件均来源于互联网抓取,只供网友学习交流、技术提升使用。
2、我们遵守BitTorrent点对点协议原则,任何版权问题请联系原资源发布商,我们不处理任何版权纠纷,谢谢!如有争议请联系邮箱:BT9527#hotmail.com(#换成@)
3、如果您发现某页面或地址有错误,请联系站长邮箱BT9527#hotmail.com(#换成@),我们会尽快处理。您的热心是对BT9527电影天堂最大的支持。
4、本站建议去正规影院观看电影以支持电影行业发展。
最新回复 (0)

你可以在 登录 or 注册 后,对此帖发表评论!

返回
发新帖