基督最后的诱惑[中英字幕].The.Last.Temptation.of.Christ.1988.BluRay.1080p.x265.10bit-MiniHD 11.13GB

版主小s 4月前 409

◎译 名 基督最后的诱惑 / 基督的最后诱惑

◎片 名 The Last Temptation of Christ

◎年 代 1988

◎产 地 加拿大 / 美国

◎类 别 剧情

◎语 言 英语

◎上映日期 1988-08-12

◎IMDb链接 https://www.imdb.com/title/tt0095497/

◎豆瓣评分 7.8/10 (6839人评价)

◎豆瓣链接 https://movie.douban.com/subject/1292889/

◎片 长 164 分钟

◎导 演 马丁·斯科塞斯 Martin Scorsese (id:1054425)

◎编 剧 尼古斯·卡赞特扎吉斯 Nikos Kazantzakis (id:1005548)

保罗·施拉德 Paul Schrader (id:1009525)

◎演 员 威廉·达福 Willem Dafoe (id:1010539)

哈威·凯特尔 Harvey Keitel (id:1048131)

史蒂夫·希尔 Steve Shill (id:1324140)

弗娜·布鲁姆 Verna Bloom (id:1063239)

芭芭拉·赫希 Barbara Hershey (id:1006998)

罗伯茨·布洛瑟姆 Roberts Blossom (id:1067168)

贝瑞·米勒 Barry Miller (id:1004882)

盖里·巴萨拉巴 Gary Basaraba (id:1061364)

厄文·克什纳 Irvin Kershner (id:1045089)

维克多·阿尔果 Victor Argo (id:1041397)

保罗·赫尔曼 Paul Herman (id:1000541)

约翰·劳瑞 John Lurie (id:1036957)

里奥·伯梅斯特 Leo Burmester (id:1073861)

安德烈·格雷戈里 Andre Gregory (id:1045313)

佩吉·戈尔姆利 Peggy Gormley (id:1285208)

Randy Danson Randy Danson (id:1084136)

托马斯·阿拉纳 Tomas Arana (id:1057639)

阿兰·罗森伯格 Alan Rosenberg (id:1027471)

德尔·罗素 Del Russel (id:1138195)

内赫米亚·佩尔索夫 Nehemiah Persoff (id:1134191)

哈利·戴恩·斯坦通 Harry Dean Stanton (id:1010582)

彼得·贝尔林 Peter Berling (id:1033190)

大卫·鲍伊 David Bowie (id:1013850)

Penny Brown Penny Brown (id:1075369)

Leo Damian Leo Damian (id:1281755)

Robert Laconi Robert Laconi (id:1114552)

伊里纳·道格拉斯 Illeana Douglas (id:1025235)

Giovanni Cianfriglia Giovanni Cianfriglia (id:1074046)

里奥·马克思 Leo Marks (id:1028878)

保罗·格雷科 Paul Greco (id:1096833)

◎简 介

本片不以《圣经》为依据,而是以故事为线索展示心灵内在的信仰冲突。当以色列处于罗马统治下的时候,木匠耶稣(威廉·达福 Willem Dafoe 饰)为罗马军队制作十字架,他为冥冥中似乎来自上帝的召唤而困扰。耶稣动身探求真相,于路邂逅起义者犹大(Harvey Keitel 饰)和昔日的朋友妓女抹大拉,他们指责耶稣的懦弱,使其坚定了信仰,越来越多的信徒加入了耶稣的队伍,施洗者约翰指点耶稣前往沙漠。耶稣抵御了诱惑,获得更大的力量,他带人围攻耶路撒冷神殿,令犹大去罗马当局告发自己,在十字架上的耶稣得到天使的信息,他走下十字架,过上了平凡的生活,直到多年以后,耶稣发现了事情的真相,重新回到了自己命运中……

本片根据卡赞察斯基的同名小说改编,自从1983年斯科塞斯第一次筹划将本片搬上银幕,宗教团体的反对声便喧嚣尘上,致使拍片计划一再拖延。

◎获奖情况 (共1项)

第61届奥斯卡金像奖 (1989)

最佳导演(提名)

└──马丁·斯科塞斯 (id:1054425)

  1. ##### MediaInfo ######

  2. General

  3. Unique ID : 222225229602398289084172680990163287691 (0xA72F05BC97F10913B8BC8AA473953E8B)

  4. Complete name : The.Last.Temptation.of.Christ.1988.BluRay.1080p.x265.10bit-MiniHD.mkv

  5. Format : Matroska

  6. Format version : Version 4

  7. File size : 11.1 GiB

  8. Duration : 2 h 43 min

  9. Overall bit rate : 9 736 kb/s

  10. Encoded date : UTC 2017-09-07 02:25:54

  11. Writing application : mkvmerge v11.0.0 ('Alive') 64bit

  12. Writing library : libebml v1.3.4 + libmatroska v1.4.5

  13. Video

  14. ID : 1

  15. Format : HEVC

  16. Format/Info : High Efficiency Video Coding

  17. Codec ID : V_MPEGH/ISO/HEVC

  18. Duration : 2 h 43 min

  19. Bit rate : 9 057 kb/s

  20. Width : 1 920 pixels

  21. Height : 1 030 pixels

  22. Display aspect ratio : 1.85:1

  23. Frame rate mode : Constant

  24. Frame rate : 23.976 (24000/1001/53354) FPS

  25. Bits/(Pixel*Frame) : 0.191

  26. Stream size : 10.4 GiB (93%)

  27. Default : Yes

  28. Forced : No

  29. Audio

  30. ID : 2

  31. Format : AC-3

  32. Format/Info : Audio Coding 3

  33. Commercial name : Dolby Digital

  34. Codec ID : A_AC3

  35. Duration : 2 h 43 min

  36. Bit rate mode : Constant

  37. Bit rate : 640 kb/s

  38. Channel(s) : 6 channels

  39. Channel layout : L R C LFE Ls Rs

  40. Sampling rate : 48.0 kHz

  41. Frame rate : 31.250 FPS (1536 SPF)

  42. Compression mode : Lossy

  43. Stream size : 749 MiB (7%)

  44. Language : English

  45. Service kind : Complete Main

  46. Default : Yes

  47. Forced : No

  48. Text #1

  49. ID : 3

  50. Format : PGS

  51. Muxing mode : zlib

  52. Codec ID : S_HDMV/PGS

  53. Codec ID/Info : Picture based subtitle format used on BDs/HD-DVDs

  54. Duration : 2 h 36 min

  55. Bit rate : 17.1 kb/s

  56. Count of elements : 3244

  57. Stream size : 19.1 MiB (0%)

  58. Language : English

  59. Default : Yes

  60. Forced : No

  61. Text #2

  62. ID : 4

  63. Format : PGS

  64. Muxing mode : zlib

  65. Codec ID : S_HDMV/PGS

  66. Codec ID/Info : Picture based subtitle format used on BDs/HD-DVDs

  67. Duration : 2 h 38 min

  68. Bit rate : 10.7 kb/s

  69. Count of elements : 2830

  70. Stream size : 12.2 MiB (0%)

  71. Language : Chinese

  72. Default : No

  73. Forced : No

  74. Text #3

  75. ID : 5

  76. Format : PGS

  77. Muxing mode : zlib

  78. Codec ID : S_HDMV/PGS

  79. Codec ID/Info : Picture based subtitle format used on BDs/HD-DVDs

  80. Duration : 2 h 38 min

  81. Bit rate : 11.1 kb/s

  82. Count of elements : 2830

  83. Stream size : 12.6 MiB (0%)

  84. Language : Chinese

  85. Default : No

  86. Forced : No

  87. Menu

  88. 00:00:00.000 : en:Chapter 01

  89. 00:07:02.880 : en:Chapter 02

  90. 00:12:25.828 : en:Chapter 03

  91. 00:17:28.630 : en:Chapter 04

  92. 00:23:00.796 : en:Chapter 05

  93. 00:28:19.114 : en:Chapter 06

  94. 00:33:28.464 : en:Chapter 07

  95. 00:42:08.609 : en:Chapter 08

  96. 00:48:13.473 : en:Chapter 09

  97. 00:53:48.767 : en:Chapter 10

  98. 01:01:41.823 : en:Chapter 11

  99. 01:09:16.485 : en:Chapter 12

  100. 01:15:00.412 : en:Chapter 13

  101. 01:19:25.218 : en:Chapter 14

  102. 01:23:37.387 : en:Chapter 15

  103. 01:29:09.510 : en:Chapter 16

  104. 01:33:57.798 : en:Chapter 17

  105. 01:37:49.947 : en:Chapter 18

  106. 01:43:46.553 : en:Chapter 19

  107. 01:48:22.537 : en:Chapter 20

  108. 01:53:54.911 : en:Chapter 21

  109. 01:58:24.180 : en:Chapter 22

  110. 02:05:07.666 : en:Chapter 23

  111. 02:09:46.570 : en:Chapter 24

  112. 02:18:04.359 : en:Chapter 25

  113. 02:22:04.891 : en:Chapter 26

  114. 02:28:33.236 : en:Chapter 27

  115. 02:37:03.205 : en:Chapter 28

  116. 02:39:37.859 : en:Chapter 29


复制代码


TAGS 剧情

磁力链:
  • magnet:?xt=urn:btih:B663E7619DE67CE1B47BE2FAA6FBD35C68D2137F
上传的附件:
BT9527电影天堂 1、BT9527电影天堂提供的BT文件均来源于互联网抓取,只供网友学习交流、技术提升使用。
2、我们遵守BitTorrent点对点协议原则,任何版权问题请联系原资源发布商,我们不处理任何版权纠纷,谢谢!如有争议请联系邮箱:BT9527#hotmail.com(#换成@)
3、如果您发现某页面或地址有错误,请联系站长邮箱BT9527#hotmail.com(#换成@),我们会尽快处理。您的热心是对BT9527电影天堂最大的支持。
4、本站建议去正规影院观看电影以支持电影行业发展。
最新回复 (0)

你可以在 登录 or 注册 后,对此帖发表评论!

返回
发新帖