启示[中文字幕].Apocalypto.2006.BluRay.1080p.x265.10bit-MiniHD 9.16GB

版主小s 4月前 284

◎译 名 启示 / 启示录 / 阿波卡猎逃(台) / 毁天灭地

◎片 名 Apocalypto

◎年 代 2006

◎产 地 美国

◎类 别 剧情 / 动作 / 冒险

◎语 言 玛雅语

◎上映日期 2006-12-08(美国)

◎IMDb链接 https://www.imdb.com/title/tt0472043/

◎豆瓣评分 8.6/10 (84203人评价)

◎豆瓣链接 https://movie.douban.com/subject/1450031/

◎片 长 139分钟

◎导 演 梅尔·吉布森 Mel Gibson (id:1054530)

◎编 剧 梅尔·吉布森 Mel Gibson (id:1054530)

法尔哈德·撒夫尼亚 Farhad Safinia (id:1379375)

◎演 员 鲁迪·杨布拉德 Rudy Youngblood (id:1049853)

达利娅·埃尔南德斯 Dalia Hernández (id:1236613)

乔纳森·布雷维尔 Jonathan Brewer (id:1320346)

莫里斯·博德耶洛海德 Morris Birdyellowhead (id:1320347)

劳尔·特鲁希洛 Raoul Trujillo (id:1157871)

赫拉多·塔拉塞纳 Gerardo Taracena (id:1298927)

卡洛斯·伊米里奥·巴厄兹 Carlos Emilio Báez (id:1320348)

阿米尔卡尔·拉米瑞兹 Amilcar Ramírez (id:1384256)

伊斯雷尔·康特雷拉斯 Israel Contreras (id:1230577)

伊斯雷尔·里奥斯 Israel Ríos (id:1384257)

玛利亚·迪亚兹 María Isabel Díaz (id:1086590)

埃斯皮里迪恩·阿科斯塔·卡奇 Espiridion Acosta Cache (id:1384258)

梅拉·萨布罗 Mayra Serbulo (id:1297221)

伊阿祖娅·拉里奥斯 Iazua Larios (id:1342654)

艾贝尔·伍尔里奇 Abel Woolrich (id:1301272)

布鲁斯·戴维 Bruce Davey (id:1281858)

詹姆斯·霍纳 James Horner (id:1025277)

迪安·塞姆勒 Dean Semler (id:1276583)

约翰·赖特 John Wright (id:1301301)

Theresa Wachter Theresa Wachter (id:1300217)

纳曼·马歇尔 Naaman Marshall (id:1303801)

Jay Aroesty Jay Aroesty (id:1277438)

托马斯·E·桑德斯 Thomas E. Sanders (id:1296629)

玛耶斯·C·鲁贝奥 Mayes C. Rubeo (id:1296272)

布莱恩·西普 Brian Sipe (id:1297726)

维托里奥·索达诺 Vittorio Sodano (id:1298042)

Roberto Ortiz Roberto Ortiz (id:1307706)

基斯·范德兰 Keith VanderLaan (id:1299886)

Mario Zarazua Mario Zarazua (id:1301651)

阿列克谢·德米特里尤 Alexei O'Brien (id:1306675)

David Ruiz Gameros David Ruiz Gameros (id:1302049)

Alessio Pompei Alessio Pompei (id:1303666)

阿尔多·锡格纳蒂 Aldo Signoretti (id:1297590)

Aurora Chavira Aurora Chavira (id:1280548)

Mark Boley Mark Boley (id:1278909)

Suzan Broad Suzan Broad (id:1279345)

Stefano Ceccarelli Stefano Ceccarelli (id:1280336)

乔治奥·格雷戈里尼 Giorgio Gregorini (id:1285419)

恩里科·雅科波尼 Enrico Jacoponi (id:1287529)

林恩·约翰逊 Lynn Johnson (id:1287798)

Alfredo Mora Alfredo Mora (id:1292429)

Teresa Patterson Teresa Patterson (id:1294097)

丹尼尔·帕克 Daniel Parker (id:1293974)

米克·罗杰斯 Mic Rodgers (id:1295865)

Mauricio Lule Mauricio Lule (id:1290451)

David Alexander David Alexander (id:1302497)

Jonathan Keeton Jonathan Keeton (id:1302111)

丹尼·S·金 Danny S. Kim (id:1288541)

Lawrence Littleton Lawrence Littleton (id:1290161)

米歇尔·莫恩 Michele Moen (id:1292270)

马克·萨利文 Mark Sullivan (id:1298630)

Ted Rae Ted Rae (id:1295142)

马克·安德烈·萨姆森 Marc-Andre Samson (id:1296592)

罗科·焦弗雷 Rocco Gioffre (id:1284912)

肖恩·安德鲁·法登 Sean Andrew Faden (id:1283408)

Doug Witsken Doug Witsken (id:1308036)

Ken Locsmandi Ken Locsmandi (id:1303583)

Erik Courtney Erik Courtney (id:1309035)

斯蒂凡诺·特里维利 Stefano Trivelli (id:1304848)

莱斯·伯恩斯汀 Les Bernstien (id:1278498)

◎简 介

玛雅文明末期,奢华淫靡之气蔓延,为了祭奠那些刚刚落成的金字塔以及驱散众神的愤怒,玛雅王国派出强悍的军队入侵丛林深处的弱小部落,将战俘作为祭天的牺牲斩杀。

年轻骁勇的战士虎爪(Rudy Youngblood 饰)和族人过着平静的生活,他有可爱的儿子和美丽的妻子,并且不久将迎来新的生命。但玛雅军队打破了这一切,他的部落遭到袭击,虎爪及时将妻儿藏在深坑之中,自己却不慎被俘。

经过一路坎坷,他和其他战俘来到玛雅城。无数头颅被可耻的刽子手斩落,但即便在这个时刻,虎爪也念念不忘丛林深处的妻儿。只要一息尚存,他无论如何也要回到妻儿的身边……

◎获奖情况 (共4项)

第79届奥斯卡金像奖 (2007)

最佳混音(提名)

最佳音效剪辑(提名)

最佳化妆(提名)

第64届金球奖 (2007)

电影类 最佳外语片(提名)

  1. ##### MediaInfo ######

  2. General

  3. Unique ID : 241878633378346582314679099371550667063 (0xB5F8215AE32DEE858F636329A2DFF137)

  4. Complete name : Apocalypto.2006.BluRay.1080p.x265.10bit-MiniHD.mkv

  5. Format : Matroska

  6. Format version : Version 4

  7. File size : 9.16 GiB

  8. Duration : 2 h 18 min

  9. Overall bit rate : 9 499 kb/s

  10. Encoded date : UTC 2017-06-28 08:43:38

  11. Writing application : mkvmerge v11.0.0 ('Alive') 64bit

  12. Writing library : libebml v1.3.4 + libmatroska v1.4.5

  13. Video

  14. ID : 1

  15. Format : HEVC

  16. Format/Info : High Efficiency Video Coding

  17. Codec ID : V_MPEGH/ISO/HEVC

  18. Duration : 2 h 18 min

  19. Bit rate : 8 670 kb/s

  20. Width : 1 920 pixels

  21. Height : 1 040 pixels

  22. Display aspect ratio : 1.85:1

  23. Frame rate mode : Constant

  24. Frame rate : 23.976 (24000/1001/53354) FPS

  25. Bits/(Pixel*Frame) : 0.181

  26. Stream size : 8.36 GiB (91%)

  27. Default : Yes

  28. Forced : No

  29. Audio

  30. ID : 2

  31. Format : AC-3

  32. Format/Info : Audio Coding 3

  33. Commercial name : Dolby Digital

  34. Codec ID : A_AC3

  35. Duration : 2 h 18 min

  36. Bit rate mode : Constant

  37. Bit rate : 640 kb/s

  38. Channel(s) : 6 channels

  39. Channel layout : L R C LFE Ls Rs

  40. Sampling rate : 48.0 kHz

  41. Frame rate : 31.250 FPS (1536 SPF)

  42. Compression mode : Lossy

  43. Stream size : 632 MiB (7%)

  44. Language : myn

  45. Service kind : Complete Main

  46. Default : Yes

  47. Forced : No

  48. Text

  49. ID : 3

  50. Format : PGS

  51. Muxing mode : zlib

  52. Codec ID : S_HDMV/PGS

  53. Codec ID/Info : Picture based subtitle format used on BDs/HD-DVDs

  54. Language : Chinese

  55. Default : Yes

  56. Forced : No

  57. Menu

  58. 00:00:00.000 : en:Chapter 01

  59. 00:19:04.977 : en:Chapter 02

  60. 00:47:06.698 : en:Chapter 03

  61. 01:09:35.629 : en:Chapter 04

  62. 01:41:08.645 : en:Chapter 05


复制代码


TAGS 动作 冒险 剧情 /

磁力链:
  • magnet:?xt=urn:btih:30AD9B9DB28749FBF7B4CD3E7F212F4A3F426F17
上传的附件:
BT9527电影天堂 1、BT9527电影天堂提供的BT文件均来源于互联网抓取,只供网友学习交流、技术提升使用。
2、我们遵守BitTorrent点对点协议原则,任何版权问题请联系原资源发布商,我们不处理任何版权纠纷,谢谢!如有争议请联系邮箱:BT9527#hotmail.com(#换成@)
3、如果您发现某页面或地址有错误,请联系站长邮箱BT9527#hotmail.com(#换成@),我们会尽快处理。您的热心是对BT9527电影天堂最大的支持。
4、本站建议去正规影院观看电影以支持电影行业发展。
最新回复 (0)

你可以在 登录 or 注册 后,对此帖发表评论!

返回
发新帖