雷神3:诸神黄昏[IMAX满屏版][简繁英字幕].Thor.Ragnarok.2017.IMAX.2160p.HDR.DSNP.WEB-DL.H.265.DDP5.1.Atmos-HDBWEB 15.71GB

版主小s 1月前 225



◎译  名 雷神3:诸神黄昏 / 雷神奇侠3:诸神黄昏(港) / 雷神索尔3:诸神黄昏(台) / 雷神3:诸神的黄昏 / Thor 3
◎片  名 Thor: Ragnarok
◎年  代 2017
◎产  地 美国
◎类  别 动作 / 奇幻 / 冒险
◎语  言 英语
◎上映日期 2017-11-03(美国/中国大陆) / 2017-10-24(英国)
◎IMDb链接 https://www.imdb.com/title/tt3501632/
◎豆瓣评分 7.4/10 (388335人评价)
◎豆瓣链接 https://movie.douban.com/subject/25821634/
◎片  长 130分钟
◎导  演 塔伊加·维迪提 Taika Waititi (id:1076354)
◎编  剧 埃里克·皮尔森 Eric Pearson (id:1383481)
       克雷格·凯尔 Craig Kyle (id:1357519)
       克里斯托弗·约斯特 Christopher Yost (id:1033717)
       斯坦·李 Stan Lee (id:1013888)
       拉里·利伯 Larry Lieber (id:1320298)
       杰克·科比 Jack Kirby (id:1050183)
◎演  员 克里斯·海姆斯沃斯 Chris Hemsworth (id:1021959)
       汤姆·希德勒斯顿 Tom Hiddleston (id:1004596)
       凯特·布兰切特 Cate Blanchett (id:1054441)
       伊德里斯·艾尔巴 Idris Elba (id:1049501)
       杰夫·高布伦 Jeff Goldblum (id:1025109)
       泰莎·汤普森 Tessa Thompson (id:1027395)
       卡尔·厄本 Karl Urban (id:1017903)
       马克·鲁弗洛 Mark Ruffalo (id:1040505)
       安东尼·霍普金斯 Anthony Hopkins (id:1054434)
       本尼迪克特·康伯巴奇 Benedict Cumberbatch (id:1009405)
       塔伊加·维迪提 Taika Waititi (id:1076354)
       瑞切尔·豪斯 Rachel House (id:1364823)
       克兰西·布朗 Clancy Brown (id:1013817)
       浅野忠信 Tadanobu Asano (id:1036630)
       雷·史蒂文森 Ray Stevenson (id:1019007)
       扎克瑞·莱维 Zachary Levi (id:1027147)
       卢克·海姆斯沃斯 Luke Hemsworth (id:1333356)
       马特·达蒙 Matt Damon (id:1054443)
       山姆·尼尔 Sam Neill (id:1049525)
       夏洛特·尼克道 Charlotte Nicdao (id:1383658)
       斯坦·李 Stan Lee (id:1013888)
       史蒂文·奥利弗 Steven Oliver (id:1415749)
       天海祐希 Yuki Amami (id:1059553)
       乔治亚·布利扎德 Georgia Blizzard (id:1383782)
       罗勃·梅耶斯 Rob Mayes (id:1324708)
       科恩·霍洛维 Cohen Holloway (id:1327519)
       斯坦·李 Stan Lee (id:1013888)
       维多利亚·阿隆索 Victoria Alonso (id:1037447)
       Brian Chapek Brian Chapek (id:1406327)
       凯文·费奇 Kevin Feige (id:1340830)
       路易斯·德·埃斯波西托 Louis D'Esposito (id:1345032)
       Thomas M. Hammel Thomas M. Hammel (id:1285918)
       马克·马瑟斯鲍夫 Mark Mothersbaugh (id:1048237)
       玛耶斯·C·鲁贝奥 Mayes C. Rubeo (id:1296272)
       劳拉·丹德里奇 Laura Dandridge (id:1341790)
       马可·伍斯特 Marco Wuest (id:1409520)
       迈克尔·狄龙 Michael Dillon (id:1230257)
       内森·里奇 Nathan Rich (id:1407651)
       丹妮丝巴兰坦 Denise Ballantyne (id:1404952)
       瑞恩·艾伦 Ryan Allen (id:1247853)
       伊万·雅格布斯 Evan Jacobs (id:1042616)
       戴维·温斯坦 David Weinstein (id:1041934)
       奥·布里克 Ed Ulbrich (id:1410103)
       丹尼·冈萨雷斯 Danny Gonzalez (id:1414099)
       拉斐尔·皮门特尔 Raphael A. Pimentel (id:1419122)
       鲍比·霍兰德·汉顿 Bobby Holland Hanton (id:1312390)

◎简  介
  在“索科维亚战役”两年后,雷神索尔(克里斯·海姆斯沃斯 Chris Hemsworth 饰)识破了洛基(汤姆·希德勒斯顿 Tom Hiddleston 饰)的伪装,辗转找到了被放逐到地球的奥丁(安东尼·霍普金斯 Anthony Hopkins 饰)。然而垂死的奥丁却告知两个儿子,“诸神的黄昏”已经开始,曾遭到奥丁封禁的死亡女神海拉(凯特·布兰切特 Cate Blanchett 饰)即将重返阿斯加德。与海拉的初次对决中,索尔失去了雷神之锤,他和洛基也被打落至混乱不堪的萨卡星。在萨卡的决斗场上,索尔重逢失踪许久的绿巨人,也见到了曾从海拉魔爪下逃得一生的女武神。                                    
                                历经千辛万苦,索尔和战友们重返阴云密布的阿斯加德,去正视这注定要到来的“诸神的黄昏”……

◎获奖情况 (共11项)
  第27届MTV电影奖 (2018)
  MTV电影奖 最佳打斗(提名)
  MTV电影奖 最佳抢镜(提名)
   └──塔伊加·维迪提 (id:1076354)

  第20届美国服装设计工会奖 (2018)
  科幻/奇幻题材电影最佳服装设计(提名)
   └──玛耶斯·C·鲁贝奥 (id:1296272)

  第16届美国视觉效果协会奖 (2018)
  最佳电影虚拟摄影(提名)
  最佳电影视觉效果合成(提名)

  第23届美国评论家选择电影奖 (2018)
  喜剧片最佳男主角(提名)
   └──克里斯·海姆斯沃斯 (id:1021959)
  最佳动作片(提名)
  最佳视觉效果(提名)

  第4届豆瓣电影年度榜单 (2017)
  评分最高的科幻/动作片(提名)
  11月最受关注电影(提名)

  第3届豆瓣电影年度榜单 (2016)
  最值得期待的外语电影(提名)

  1. ##### MediaInfo ######
  2. General
  3. Unique ID                                : 184489851905407140649809168625295345660 (0x8ACB73F9404409DE507634A4D522C7FC)
  4. Complete name                            : Thor.Ragnarok.2017.IMAX.2160p.HDR.DSNP.WEB-DL.H.265.DDP5.1.Atmos-HDBWEB.mkv
  5. Format                                   : Matroska
  6. Format version                           : Version 4
  7. File size                                : 15.7 GiB
  8. Duration                                 : 2 h 10 min
  9. Overall bit rate                         : 17.2 Mb/s
  10. Encoded date                             : UTC 2022-05-26 17:00:26
  11. Writing application                      : mkvmerge v67.0.0 ('Under Stars') 64-bit
  12. Writing library                          : libebml v1.4.2 + libmatroska v1.6.4
  13. Video
  14. ID                                       : 1
  15. Format                                   : HEVC
  16. Format/Info                              : High Efficiency Video Coding
  17. Format profile                           : Main 10@L5@High
  18. HDR format                               : SMPTE ST 2086, HDR10 compatible
  19. Codec ID                                 : V_MPEGH/ISO/HEVC
  20. Duration                                 : 2 h 10 min
  21. Bit rate                                 : 16.5 Mb/s
  22. Width                                    : 3 840 pixels
  23. Height                                   : 2 160 pixels
  24. Display aspect ratio                     : 16:9
  25. Frame rate mode                          : Constant
  26. Frame rate                               : 23.976 (24000/1001/53354) FPS
  27. Color space                              : YUV
  28. Chroma subsampling                       : 4:2:0
  29. Bit depth                                : 10 bits
  30. Bits/(Pixel*Frame)                       : 0.083
  31. Stream size                              : 15.0 GiB (96%)
  32. Language                                 : English
  33. Default                                  : Yes
  34. Forced                                   : No
  35. Color range                              : Limited
  36. Color primaries                          : BT.2020
  37. Transfer characteristics                 : PQ
  38. Matrix coefficients                      : BT.2020 non-constant
  39. Mastering display color primaries        : Display P3
  40. Mastering display luminance              : min: 0.0050 cd/m2, max: 4000 cd/m2
  41. Audio
  42. ID                                       : 2
  43. Format                                   : E-AC-3 JOC
  44. Format/Info                              : Enhanced AC-3 with Joint Object Coding
  45. Commercial name                          : Dolby Digital Plus with Dolby Atmos
  46. Codec ID                                 : A_EAC3
  47. Duration                                 : 2 h 10 min
  48. Bit rate mode                            : Constant
  49. Bit rate                                 : 768 kb/s
  50. Channel(s)                               : 6 channels
  51. Channel layout                           : L R C LFE Ls Rs
  52. Sampling rate                            : 48.0 kHz
  53. Frame rate                               : 31.250 FPS (1536 SPF)
  54. Compression mode                         : Lossy
  55. Stream size                              : 717 MiB (4%)
  56. Language                                 : English
  57. Service kind                             : Complete Main
  58. Default                                  : Yes
  59. Forced                                   : No
  60. Complexity index                         : 16
  61. Number of dynamic objects                : 15
  62. Bed channel count                        : 1 channel
  63. Bed channel configuration                : LFE
  64. Text #1
  65. ID                                       : 3
  66. Format                                   : UTF-8
  67. Codec ID                                 : S_TEXT/UTF8
  68. Codec ID/Info                            : UTF-8 Plain Text
  69. Duration                                 : 2 h 10 min
  70. Bit rate                                 : 56 b/s
  71. Count of elements                        : 2081
  72. Stream size                              : 54.1 KiB (0%)
  73. Title                                    : SDH
  74. Language                                 : English
  75. Default                                  : No
  76. Forced                                   : No
  77. Text #2
  78. ID                                       : 4
  79. Format                                   : UTF-8
  80. Codec ID                                 : S_TEXT/UTF8
  81. Codec ID/Info                            : UTF-8 Plain Text
  82. Duration                                 : 2 h 9 min
  83. Bit rate                                 : 43 b/s
  84. Count of elements                        : 1121
  85. Stream size                              : 41.1 KiB (0%)
  86. Language                                 : Danish
  87. Default                                  : No
  88. Forced                                   : No
  89. Text #3
  90. ID                                       : 5
  91. Format                                   : UTF-8
  92. Codec ID                                 : S_TEXT/UTF8
  93. Codec ID/Info                            : UTF-8 Plain Text
  94. Duration                                 : 2 h 9 min
  95. Bit rate                                 : 51 b/s
  96. Count of elements                        : 1566
  97. Stream size                              : 49.1 KiB (0%)
  98. Language                                 : German
  99. Default                                  : No
  100. Forced                                   : No
  101. Text #4
  102. ID                                       : 6
  103. Format                                   : UTF-8
  104. Codec ID                                 : S_TEXT/UTF8
  105. Codec ID/Info                            : UTF-8 Plain Text
  106. Duration                                 : 2 h 9 min
  107. Bit rate                                 : 54 b/s
  108. Count of elements                        : 1654
  109. Stream size                              : 52.2 KiB (0%)
  110. Title                                    : Latin America (SDH)
  111. Language                                 : Spanish
  112. Default                                  : No
  113. Forced                                   : No
  114. Text #5
  115. ID                                       : 7
  116. Format                                   : UTF-8
  117. Codec ID                                 : S_TEXT/UTF8
  118. Codec ID/Info                            : UTF-8 Plain Text
  119. Duration                                 : 2 h 9 min
  120. Bit rate                                 : 49 b/s
  121. Count of elements                        : 1567
  122. Stream size                              : 47.3 KiB (0%)
  123. Title                                    : Latin America
  124. Language                                 : Spanish
  125. Default                                  : No
  126. Forced                                   : No
  127. Text #6
  128. ID                                       : 8
  129. Format                                   : UTF-8
  130. Codec ID                                 : S_TEXT/UTF8
  131. Codec ID/Info                            : UTF-8 Plain Text
  132. Duration                                 : 2 h 9 min
  133. Bit rate                                 : 46 b/s
  134. Count of elements                        : 1564
  135. Stream size                              : 44.0 KiB (0%)
  136. Language                                 : Spanish
  137. Default                                  : No
  138. Forced                                   : No
  139. Text #7
  140. ID                                       : 9
  141. Format                                   : UTF-8
  142. Codec ID                                 : S_TEXT/UTF8
  143. Codec ID/Info                            : UTF-8 Plain Text
  144. Duration                                 : 2 h 9 min
  145. Bit rate                                 : 46 b/s
  146. Count of elements                        : 1567
  147. Stream size                              : 44.4 KiB (0%)
  148. Language                                 : Finnish
  149. Default                                  : No
  150. Forced                                   : No
  151. Text #8
  152. ID                                       : 10
  153. Format                                   : UTF-8
  154. Codec ID                                 : S_TEXT/UTF8
  155. Codec ID/Info                            : UTF-8 Plain Text
  156. Duration                                 : 2 h 10 min
  157. Bit rate                                 : 68 b/s
  158. Count of elements                        : 2254
  159. Stream size                              : 65.6 KiB (0%)
  160. Title                                    : Canada (SDH)
  161. Language                                 : French
  162. Default                                  : No
  163. Forced                                   : No
  164. Text #9
  165. ID                                       : 11
  166. Format                                   : UTF-8
  167. Codec ID                                 : S_TEXT/UTF8
  168. Codec ID/Info                            : UTF-8 Plain Text
  169. Duration                                 : 2 h 9 min
  170. Bit rate                                 : 50 b/s
  171. Count of elements                        : 1588
  172. Stream size                              : 47.8 KiB (0%)
  173. Title                                    : Canada
  174. Language                                 : French
  175. Default                                  : No
  176. Forced                                   : No
  177. Text #10
  178. ID                                       : 12
  179. Format                                   : UTF-8
  180. Codec ID                                 : S_TEXT/UTF8
  181. Codec ID/Info                            : UTF-8 Plain Text
  182. Duration                                 : 2 h 10 min
  183. Bit rate                                 : 50 b/s
  184. Count of elements                        : 1881
  185. Stream size                              : 48.2 KiB (0%)
  186. Title                                    : SDH
  187. Language                                 : French
  188. Default                                  : No
  189. Forced                                   : No
  190. Text #11
  191. ID                                       : 13
  192. Format                                   : UTF-8
  193. Codec ID                                 : S_TEXT/UTF8
  194. Codec ID/Info                            : UTF-8 Plain Text
  195. Duration                                 : 2 h 9 min
  196. Bit rate                                 : 42 b/s
  197. Count of elements                        : 1563
  198. Stream size                              : 40.6 KiB (0%)
  199. Language                                 : French
  200. Default                                  : No
  201. Forced                                   : No
  202. Text #12
  203. ID                                       : 14
  204. Format                                   : UTF-8
  205. Codec ID                                 : S_TEXT/UTF8
  206. Codec ID/Info                            : UTF-8 Plain Text
  207. Duration                                 : 2 h 9 min
  208. Bit rate                                 : 52 b/s
  209. Count of elements                        : 1566
  210. Stream size                              : 49.3 KiB (0%)
  211. Language                                 : Icelandic
  212. Default                                  : No
  213. Forced                                   : No
  214. Text #13
  215. ID                                       : 15
  216. Format                                   : UTF-8
  217. Codec ID                                 : S_TEXT/UTF8
  218. Codec ID/Info                            : UTF-8 Plain Text
  219. Duration                                 : 2 h 9 min
  220. Bit rate                                 : 50 b/s
  221. Count of elements                        : 1601
  222. Stream size                              : 47.8 KiB (0%)
  223. Language                                 : Italian
  224. Default                                  : No
  225. Forced                                   : No
  226. Text #14
  227. ID                                       : 16
  228. Format                                   : UTF-8
  229. Codec ID                                 : S_TEXT/UTF8
  230. Codec ID/Info                            : UTF-8 Plain Text
  231. Duration                                 : 2 h 9 min
  232. Bit rate                                 : 38 b/s
  233. Count of elements                        : 1478
  234. Stream size                              : 36.1 KiB (0%)
  235. Language                                 : Japanese
  236. Default                                  : No
  237. Forced                                   : No
  238. Text #15
  239. ID                                       : 17
  240. Format                                   : UTF-8
  241. Codec ID                                 : S_TEXT/UTF8
  242. Codec ID/Info                            : UTF-8 Plain Text
  243. Duration                                 : 2 h 9 min
  244. Bit rate                                 : 44 b/s
  245. Count of elements                        : 1556
  246. Stream size                              : 42.5 KiB (0%)
  247. Language                                 : Korean
  248. Default                                  : No
  249. Forced                                   : No
  250. Text #16
  251. ID                                       : 18
  252. Format                                   : UTF-8
  253. Codec ID                                 : S_TEXT/UTF8
  254. Codec ID/Info                            : UTF-8 Plain Text
  255. Duration                                 : 2 h 9 min
  256. Bit rate                                 : 44 b/s
  257. Count of elements                        : 1566
  258. Stream size                              : 42.0 KiB (0%)
  259. Language                                 : Norwegian Bokmal
  260. Default                                  : No
  261. Forced                                   : No
  262. Text #17
  263. ID                                       : 19
  264. Format                                   : UTF-8
  265. Codec ID                                 : S_TEXT/UTF8
  266. Codec ID/Info                            : UTF-8 Plain Text
  267. Duration                                 : 2 h 9 min
  268. Bit rate                                 : 44 b/s
  269. Count of elements                        : 1161
  270. Stream size                              : 42.2 KiB (0%)
  271. Language                                 : Dutch
  272. Default                                  : No
  273. Forced                                   : No
  274. Text #18
  275. ID                                       : 20
  276. Format                                   : UTF-8
  277. Codec ID                                 : S_TEXT/UTF8
  278. Codec ID/Info                            : UTF-8 Plain Text
  279. Duration                                 : 2 h 10 min
  280. Bit rate                                 : 53 b/s
  281. Count of elements                        : 2093
  282. Stream size                              : 50.7 KiB (0%)
  283. Title                                    : Brazil (SDH)
  284. Language                                 : Portuguese
  285. Default                                  : No
  286. Forced                                   : No
  287. Text #19
  288. ID                                       : 21
  289. Format                                   : UTF-8
  290. Codec ID                                 : S_TEXT/UTF8
  291. Codec ID/Info                            : UTF-8 Plain Text
  292. Duration                                 : 2 h 9 min
  293. Bit rate                                 : 47 b/s
  294. Count of elements                        : 1572
  295. Stream size                              : 44.9 KiB (0%)
  296. Title                                    : Brazil
  297. Language                                 : Portuguese
  298. Default                                  : No
  299. Forced                                   : No
  300. Text #20
  301. ID                                       : 22
  302. Format                                   : UTF-8
  303. Codec ID                                 : S_TEXT/UTF8
  304. Codec ID/Info                            : UTF-8 Plain Text
  305. Duration                                 : 2 h 9 min
  306. Bit rate                                 : 49 b/s
  307. Count of elements                        : 1574
  308. Stream size                              : 47.0 KiB (0%)
  309. Language                                 : Portuguese
  310. Default                                  : No
  311. Forced                                   : No
  312. Text #21
  313. ID                                       : 23
  314. Format                                   : UTF-8
  315. Codec ID                                 : S_TEXT/UTF8
  316. Codec ID/Info                            : UTF-8 Plain Text
  317. Duration                                 : 2 h 9 min
  318. Bit rate                                 : 43 b/s
  319. Count of elements                        : 1056
  320. Stream size                              : 41.2 KiB (0%)
  321. Language                                 : Swedish
  322. Default                                  : No
  323. Forced                                   : No
  324. Text #22
  325. ID                                       : 24
  326. Format                                   : UTF-8
  327. Codec ID                                 : S_TEXT/UTF8
  328. Codec ID/Info                            : UTF-8 Plain Text
  329. Duration                                 : 2 h 9 min
  330. Bit rate                                 : 41 b/s
  331. Count of elements                        : 1558
  332. Stream size                              : 39.3 KiB (0%)
  333. Title                                    : Simplified
  334. Language                                 : Chinese
  335. Default                                  : No
  336. Forced                                   : No
  337. Text #23
  338. ID                                       : 25
  339. Format                                   : UTF-8
  340. Codec ID                                 : S_TEXT/UTF8
  341. Codec ID/Info                            : UTF-8 Plain Text
  342. Duration                                 : 2 h 9 min
  343. Bit rate                                 : 39 b/s
  344. Count of elements                        : 1622
  345. Stream size                              : 37.2 KiB (0%)
  346. Title                                    : Traditional
  347. Language                                 : Chinese
  348. Default                                  : No
  349. Forced                                   : No
  350. Text #24
  351. ID                                       : 26
  352. Format                                   : UTF-8
  353. Codec ID                                 : S_TEXT/UTF8
  354. Codec ID/Info                            : UTF-8 Plain Text
  355. Duration                                 : 2 h 9 min
  356. Bit rate                                 : 34 b/s
  357. Count of elements                        : 1569
  358. Stream size                              : 32.7 KiB (0%)
  359. Title                                    : Traditional, Hong Kong
  360. Language                                 : Chinese
  361. Default                                  : No
  362. Forced                                   : No
复制代码




TAGS 动作 奇幻 冒险 /

磁力链:
  • magnet:?xt=urn:btih:274D3910299633ACCB524807F8D7A2C898BFF4E5
上传的附件:
BT9527电影天堂 1、BT9527电影天堂提供的BT文件均来源于互联网抓取,只供网友学习交流、技术提升使用。
2、我们遵守BitTorrent点对点协议原则,任何版权问题请联系原资源发布商,我们不处理任何版权纠纷,谢谢!如有争议请联系邮箱:BT9527#hotmail.com(#换成@)
3、如果您发现某页面或地址有错误,请联系站长邮箱BT9527#hotmail.com(#换成@),我们会尽快处理。您的热心是对BT9527电影天堂最大的支持。
4、本站建议去正规影院观看电影以支持电影行业发展。
最新回复 (1)

你可以在 登录 or 注册 后,对此帖发表评论!

返回
发新帖