银河护卫队2[IMAX满屏版][简繁英字幕].Guardians.of.the.Galaxy.Vol.2.2017.IMAX.2160p.HDR.DSNP.WEB-DL.H.265.DDP5.1.Atmos-HDBWEB 16.41GB

版主小s 4月前 283



◎译  名 银河护卫队2 / 星际异攻队2(台) / 银河守护队2(港) / 银护2 / Guardians of the Galaxy 2
◎片  名 Guardians of the Galaxy Vol. 2
◎年  代 2017
◎产  地 美国
◎类  别 动作 / 科幻 / 冒险
◎语  言 英语
◎上映日期 2017-05-05(中国大陆/美国) / 2017-04-19(洛杉矶首映)
◎IMDb链接 https://www.imdb.com/title/tt3896198/
◎豆瓣评分 8.0/10 (427234人评价)
◎豆瓣链接 https://movie.douban.com/subject/25937854/
◎片  长 136分钟
◎导  演 詹姆斯·古恩 James Gunn (id:1092322)
◎编  剧 詹姆斯·古恩 James Gunn (id:1092322)
       丹·阿布内特 Dan Abnett (id:1332273)
       安迪·兰宁 Andy Lanning (id:1332276)
◎演  员 克里斯·帕拉特 Chris Pratt (id:1017967)
       佐伊·索尔达娜 Zoe Saldana (id:1047985)
       戴夫·巴蒂斯塔 Dave Bautista (id:1014003)
       范·迪塞尔 Vin Diesel (id:1041020)
       布莱德利·库珀 Bradley Cooper (id:1013757)
       凯伦·吉兰 Karen Gillan (id:1036344)
       迈克尔·鲁克 Michael Rooker (id:1002751)
       庞·克莱门捷夫 Pom Klementieff (id:1313255)
       伊丽莎白·德比茨基 Elizabeth Debicki (id:1322172)
       肖恩·古恩 Sean Gunn (id:1022552)
       库尔特·拉塞尔 Kurt Russell (id:1031814)
       克里斯·沙利文 Chris Sullivan (id:1354747)
       大卫·哈塞尔霍夫 David Hasselhoff (id:1010601)
       西尔维斯特·史泰龙 Sylvester Stallone (id:1047996)
       杨紫琼 Michelle Yeoh (id:1022664)
       斯坦·李 Stan Lee (id:1013888)
       内森·菲利安 Nathan Fillion (id:1000003)
       劳拉·哈德克 Laura Haddock (id:1324587)
       莫莉·奎恩 Molly C. Quinn (id:1027223)
       文·瑞姆斯 Ving Rhames (id:1048129)
       迈克尔·罗森巴姆 Michael Rosenbaum (id:1009299)
       瓦耶特·奥莱夫 Wyatt Oleff (id:1343727)
       卢克·库克 Luke Cook (id:1206819)
       特伦斯·罗斯摩尔 Terence Rosemore (id:1142633)
       亚历克斯·克莱因 Alex Klein (id:1328649)
       乔·弗里亚 Joe Fria (id:1394859)
       莫莉·C·奎恩 Molly C. Quinn (id:1419244)
       斯坦·李 Stan Lee (id:1013888)
       凯文·费奇 Kevin Feige (id:1340830)
       泰勒·贝茨 Tyler Bates (id:1278075)
       Jerad Marantz Jerad Marantz (id:1454186)
       朱迪安娜·马科夫斯基 Judianna Makovsky (id:1290783)
       劳拉·丹德里奇 Laura Dandridge (id:1341790)
       李·奥尔洛夫 Lee Orloff (id:1293624)
       杰西卡卡林顿 Jessica Carrington (id:1404965)
       迈克尔·狄龙 Michael Dillon (id:1230257)
       丹尼尔·萨迪克 Daniel Sudick (id:1298615)
       伊万·雅格布斯 Evan Jacobs (id:1042616)
       瑞恩·艾伦 Ryan Allen (id:1247853)
       威尔·华莱士 Will Wallace (id:1405398)
       瑞秋·劳伦森 Rachel Laurenson (id:1414103)
       托马斯·尼特曼 Thomas Nittmann (id:1414106)
       罗恩·安德达尔 Ron Underdahl (id:1414354)
       拉斐尔·皮门特尔 Raphael A. Pimentel (id:1419122)
       奥·布里克 Ed Ulbrich (id:1410103)
       扎克·贾德森 Zack Judson (id:1411059)
       艾米丽·皮德 Emily Pead (id:1411061)
       保罗·哈林 Paul Harling (id:1411056)

◎简  介
  火箭浣熊(布莱德利·库珀 Bradley Cooper 饰)偷走了大祭司阿耶莎(伊丽莎白·德比齐 Elizabeth Debicki 饰)的能量电池,包括星爵(克里斯·帕拉特 Chris Pratt 饰)、卡魔拉(佐伊·索尔达娜 Zoe Saldana 饰)、德拉克斯(戴夫·巴蒂斯塔 Dave Bautista 饰)在内的一行人遭到了后者派出的舰队的袭击。一个神秘人物乘坐着飞船救下了银河护卫队的众人,而驾驶着飞船的不是别人,竟然正是星爵的亲生父亲伊戈(库尔特·拉塞尔 Kurt Russell 饰)。                                    
                                在伊戈的带领下,星爵、卡魔拉和德拉克斯来到了由伊戈一手制造的星球上,而剩下的成员们则着手修复损坏的飞船。那边厢,阿耶莎委托勇度(迈克尔·鲁克 Michael Rooker 饰)抓住星爵替自己报仇,而卡魔拉亦渐渐发现了伊戈和善面目下隐藏的巨大阴谋。

◎获奖情况 (共9项)
  第90届奥斯卡金像奖 (2018)
  最佳视觉效果(提名)

  第45届动画安妮奖 (2018)
  最佳真人电影动画角色(提名)

  第16届美国视觉效果协会奖 (2018)
  最佳特效电影视觉效果(提名)
  最佳电影虚拟摄影

  第21届好莱坞电影奖 (2017)
  年度音效

  第4届豆瓣电影年度榜单 (2017)
  评分最高的科幻/动作片(提名)
  年度电影原声(提名)
  5月最受关注电影(提名)

  第3届豆瓣电影年度榜单 (2016)
  最值得期待的外语电影(提名)

  1. ##### MediaInfo ######
  2. General
  3. Unique ID                                : 248366358602526088170397766984110041683 (0xBAD99EE7940276D40A7FCB247CA9EA53)
  4. Complete name                            : Guardians.of.the.Galaxy.Vol.2.2017.IMAX.2160p.HDR.DSNP.WEB-DL.H.265.DDP5.1.Atmos-HDBWEB.mkv
  5. Format                                   : Matroska
  6. Format version                           : Version 4
  7. File size                                : 16.4 GiB
  8. Duration                                 : 2 h 15 min
  9. Overall bit rate                         : 17.3 Mb/s
  10. Encoded date                             : UTC 2022-05-27 03:48:16
  11. Writing application                      : mkvmerge v67.0.0 ('Under Stars') 64-bit
  12. Writing library                          : libebml v1.4.2 + libmatroska v1.6.4
  13. Video
  14. ID                                       : 1
  15. Format                                   : HEVC
  16. Format/Info                              : High Efficiency Video Coding
  17. Format profile                           : Main 10@L5@High
  18. HDR format                               : SMPTE ST 2086, HDR10 compatible
  19. Codec ID                                 : V_MPEGH/ISO/HEVC
  20. Duration                                 : 2 h 15 min
  21. Bit rate                                 : 16.5 Mb/s
  22. Width                                    : 3 840 pixels
  23. Height                                   : 2 160 pixels
  24. Display aspect ratio                     : 16:9
  25. Frame rate mode                          : Constant
  26. Frame rate                               : 23.976 (24000/1001/53354) FPS
  27. Color space                              : YUV
  28. Chroma subsampling                       : 4:2:0
  29. Bit depth                                : 10 bits
  30. Bits/(Pixel*Frame)                       : 0.083
  31. Stream size                              : 15.7 GiB (96%)
  32. Language                                 : English
  33. Default                                  : Yes
  34. Forced                                   : No
  35. Color range                              : Limited
  36. Color primaries                          : BT.2020
  37. Transfer characteristics                 : PQ
  38. Matrix coefficients                      : BT.2020 non-constant
  39. Mastering display color primaries        : Display P3
  40. Mastering display luminance              : min: 0.0050 cd/m2, max: 4000 cd/m2
  41. Audio
  42. ID                                       : 2
  43. Format                                   : E-AC-3 JOC
  44. Format/Info                              : Enhanced AC-3 with Joint Object Coding
  45. Commercial name                          : Dolby Digital Plus with Dolby Atmos
  46. Codec ID                                 : A_EAC3
  47. Duration                                 : 2 h 15 min
  48. Bit rate mode                            : Constant
  49. Bit rate                                 : 768 kb/s
  50. Channel(s)                               : 6 channels
  51. Channel layout                           : L R C LFE Ls Rs
  52. Sampling rate                            : 48.0 kHz
  53. Frame rate                               : 31.250 FPS (1536 SPF)
  54. Compression mode                         : Lossy
  55. Stream size                              : 745 MiB (4%)
  56. Language                                 : English
  57. Service kind                             : Complete Main
  58. Default                                  : Yes
  59. Forced                                   : No
  60. Complexity index                         : 16
  61. Number of dynamic objects                : 15
  62. Bed channel count                        : 1 channel
  63. Bed channel configuration                : LFE
  64. Text #1
  65. ID                                       : 3
  66. Format                                   : UTF-8
  67. Codec ID                                 : S_TEXT/UTF8
  68. Codec ID/Info                            : UTF-8 Plain Text
  69. Duration                                 : 2 h 14 min
  70. Bit rate                                 : 54 b/s
  71. Count of elements                        : 2022
  72. Stream size                              : 54.0 KiB (0%)
  73. Title                                    : SDH
  74. Language                                 : English
  75. Default                                  : No
  76. Forced                                   : No
  77. Text #2
  78. ID                                       : 4
  79. Format                                   : UTF-8
  80. Codec ID                                 : S_TEXT/UTF8
  81. Codec ID/Info                            : UTF-8 Plain Text
  82. Duration                                 : 2 h 14 min
  83. Bit rate                                 : 42 b/s
  84. Count of elements                        : 1177
  85. Stream size                              : 41.8 KiB (0%)
  86. Language                                 : Danish
  87. Default                                  : No
  88. Forced                                   : No
  89. Text #3
  90. ID                                       : 5
  91. Format                                   : UTF-8
  92. Codec ID                                 : S_TEXT/UTF8
  93. Codec ID/Info                            : UTF-8 Plain Text
  94. Duration                                 : 2 h 14 min
  95. Bit rate                                 : 48 b/s
  96. Count of elements                        : 1535
  97. Stream size                              : 48.0 KiB (0%)
  98. Language                                 : German
  99. Default                                  : No
  100. Forced                                   : No
  101. Text #4
  102. ID                                       : 6
  103. Format                                   : UTF-8
  104. Codec ID                                 : S_TEXT/UTF8
  105. Codec ID/Info                            : UTF-8 Plain Text
  106. Duration                                 : 2 h 14 min
  107. Bit rate                                 : 53 b/s
  108. Count of elements                        : 1905
  109. Stream size                              : 52.8 KiB (0%)
  110. Title                                    : Latin America (SDH)
  111. Language                                 : Spanish
  112. Default                                  : No
  113. Forced                                   : No
  114. Text #5
  115. ID                                       : 7
  116. Format                                   : UTF-8
  117. Codec ID                                 : S_TEXT/UTF8
  118. Codec ID/Info                            : UTF-8 Plain Text
  119. Duration                                 : 2 h 14 min
  120. Bit rate                                 : 47 b/s
  121. Count of elements                        : 1604
  122. Stream size                              : 47.3 KiB (0%)
  123. Title                                    : Latin America
  124. Language                                 : Spanish
  125. Default                                  : No
  126. Forced                                   : No
  127. Text #6
  128. ID                                       : 8
  129. Format                                   : UTF-8
  130. Codec ID                                 : S_TEXT/UTF8
  131. Codec ID/Info                            : UTF-8 Plain Text
  132. Duration                                 : 2 h 14 min
  133. Bit rate                                 : 45 b/s
  134. Count of elements                        : 1549
  135. Stream size                              : 44.5 KiB (0%)
  136. Language                                 : Spanish
  137. Default                                  : No
  138. Forced                                   : No
  139. Text #7
  140. ID                                       : 9
  141. Format                                   : UTF-8
  142. Codec ID                                 : S_TEXT/UTF8
  143. Codec ID/Info                            : UTF-8 Plain Text
  144. Duration                                 : 2 h 14 min
  145. Bit rate                                 : 45 b/s
  146. Count of elements                        : 1572
  147. Stream size                              : 44.5 KiB (0%)
  148. Language                                 : Finnish
  149. Default                                  : No
  150. Forced                                   : No
  151. Text #8
  152. ID                                       : 10
  153. Format                                   : UTF-8
  154. Codec ID                                 : S_TEXT/UTF8
  155. Codec ID/Info                            : UTF-8 Plain Text
  156. Duration                                 : 2 h 14 min
  157. Bit rate                                 : 64 b/s
  158. Count of elements                        : 2198
  159. Stream size                              : 64.0 KiB (0%)
  160. Title                                    : Canada (SDH)
  161. Language                                 : French
  162. Default                                  : No
  163. Forced                                   : No
  164. Text #9
  165. ID                                       : 11
  166. Format                                   : UTF-8
  167. Codec ID                                 : S_TEXT/UTF8
  168. Codec ID/Info                            : UTF-8 Plain Text
  169. Duration                                 : 2 h 14 min
  170. Bit rate                                 : 48 b/s
  171. Count of elements                        : 1618
  172. Stream size                              : 48.2 KiB (0%)
  173. Title                                    : Canada
  174. Language                                 : French
  175. Default                                  : No
  176. Forced                                   : No
  177. Text #10
  178. ID                                       : 12
  179. Format                                   : UTF-8
  180. Codec ID                                 : S_TEXT/UTF8
  181. Codec ID/Info                            : UTF-8 Plain Text
  182. Duration                                 : 2 h 13 min
  183. Bit rate                                 : 43 b/s
  184. Count of elements                        : 1441
  185. Stream size                              : 42.4 KiB (0%)
  186. Title                                    : SDH
  187. Language                                 : French
  188. Default                                  : No
  189. Forced                                   : No
  190. Text #11
  191. ID                                       : 13
  192. Format                                   : UTF-8
  193. Codec ID                                 : S_TEXT/UTF8
  194. Codec ID/Info                            : UTF-8 Plain Text
  195. Duration                                 : 2 h 14 min
  196. Bit rate                                 : 43 b/s
  197. Count of elements                        : 1477
  198. Stream size                              : 42.7 KiB (0%)
  199. Language                                 : French
  200. Default                                  : No
  201. Forced                                   : No
  202. Text #12
  203. ID                                       : 14
  204. Format                                   : UTF-8
  205. Codec ID                                 : S_TEXT/UTF8
  206. Codec ID/Info                            : UTF-8 Plain Text
  207. Duration                                 : 2 h 14 min
  208. Bit rate                                 : 49 b/s
  209. Count of elements                        : 1539
  210. Stream size                              : 48.6 KiB (0%)
  211. Language                                 : Icelandic
  212. Default                                  : No
  213. Forced                                   : No
  214. Text #13
  215. ID                                       : 15
  216. Format                                   : UTF-8
  217. Codec ID                                 : S_TEXT/UTF8
  218. Codec ID/Info                            : UTF-8 Plain Text
  219. Duration                                 : 2 h 14 min
  220. Bit rate                                 : 47 b/s
  221. Count of elements                        : 1571
  222. Stream size                              : 46.8 KiB (0%)
  223. Language                                 : Italian
  224. Default                                  : No
  225. Forced                                   : No
  226. Text #14
  227. ID                                       : 16
  228. Format                                   : UTF-8
  229. Codec ID                                 : S_TEXT/UTF8
  230. Codec ID/Info                            : UTF-8 Plain Text
  231. Duration                                 : 2 h 14 min
  232. Bit rate                                 : 39 b/s
  233. Count of elements                        : 1412
  234. Stream size                              : 38.8 KiB (0%)
  235. Language                                 : Japanese
  236. Default                                  : No
  237. Forced                                   : No
  238. Text #15
  239. ID                                       : 17
  240. Format                                   : UTF-8
  241. Codec ID                                 : S_TEXT/UTF8
  242. Codec ID/Info                            : UTF-8 Plain Text
  243. Duration                                 : 2 h 14 min
  244. Bit rate                                 : 40 b/s
  245. Count of elements                        : 1550
  246. Stream size                              : 40.4 KiB (0%)
  247. Language                                 : Korean
  248. Default                                  : No
  249. Forced                                   : No
  250. Text #16
  251. ID                                       : 18
  252. Format                                   : UTF-8
  253. Codec ID                                 : S_TEXT/UTF8
  254. Codec ID/Info                            : UTF-8 Plain Text
  255. Duration                                 : 2 h 14 min
  256. Bit rate                                 : 45 b/s
  257. Count of elements                        : 1579
  258. Stream size                              : 45.1 KiB (0%)
  259. Language                                 : Norwegian Bokmal
  260. Default                                  : No
  261. Forced                                   : No
  262. Text #17
  263. ID                                       : 19
  264. Format                                   : UTF-8
  265. Codec ID                                 : S_TEXT/UTF8
  266. Codec ID/Info                            : UTF-8 Plain Text
  267. Duration                                 : 2 h 14 min
  268. Bit rate                                 : 39 b/s
  269. Count of elements                        : 995
  270. Stream size                              : 39.0 KiB (0%)
  271. Language                                 : Dutch
  272. Default                                  : No
  273. Forced                                   : No
  274. Text #18
  275. ID                                       : 20
  276. Format                                   : UTF-8
  277. Codec ID                                 : S_TEXT/UTF8
  278. Codec ID/Info                            : UTF-8 Plain Text
  279. Duration                                 : 2 h 14 min
  280. Bit rate                                 : 41 b/s
  281. Count of elements                        : 1509
  282. Stream size                              : 40.7 KiB (0%)
  283. Language                                 : Polish
  284. Default                                  : No
  285. Forced                                   : No
  286. Text #19
  287. ID                                       : 21
  288. Format                                   : UTF-8
  289. Codec ID                                 : S_TEXT/UTF8
  290. Codec ID/Info                            : UTF-8 Plain Text
  291. Duration                                 : 2 h 14 min
  292. Bit rate                                 : 53 b/s
  293. Count of elements                        : 2056
  294. Stream size                              : 53.3 KiB (0%)
  295. Title                                    : Brazil (SDH)
  296. Language                                 : Portuguese
  297. Default                                  : No
  298. Forced                                   : No
  299. Text #20
  300. ID                                       : 22
  301. Format                                   : UTF-8
  302. Codec ID                                 : S_TEXT/UTF8
  303. Codec ID/Info                            : UTF-8 Plain Text
  304. Duration                                 : 2 h 14 min
  305. Bit rate                                 : 45 b/s
  306. Count of elements                        : 1570
  307. Stream size                              : 45.2 KiB (0%)
  308. Title                                    : Brazil
  309. Language                                 : Portuguese
  310. Default                                  : No
  311. Forced                                   : No
  312. Text #21
  313. ID                                       : 23
  314. Format                                   : UTF-8
  315. Codec ID                                 : S_TEXT/UTF8
  316. Codec ID/Info                            : UTF-8 Plain Text
  317. Duration                                 : 2 h 14 min
  318. Bit rate                                 : 46 b/s
  319. Count of elements                        : 1541
  320. Stream size                              : 45.8 KiB (0%)
  321. Language                                 : Portuguese
  322. Default                                  : No
  323. Forced                                   : No
  324. Text #22
  325. ID                                       : 24
  326. Format                                   : UTF-8
  327. Codec ID                                 : S_TEXT/UTF8
  328. Codec ID/Info                            : UTF-8 Plain Text
  329. Duration                                 : 2 h 14 min
  330. Bit rate                                 : 43 b/s
  331. Count of elements                        : 1126
  332. Stream size                              : 42.9 KiB (0%)
  333. Language                                 : Swedish
  334. Default                                  : No
  335. Forced                                   : No
  336. Text #23
  337. ID                                       : 25
  338. Format                                   : UTF-8
  339. Codec ID                                 : S_TEXT/UTF8
  340. Codec ID/Info                            : UTF-8 Plain Text
  341. Duration                                 : 2 h 14 min
  342. Bit rate                                 : 47 b/s
  343. Count of elements                        : 1479
  344. Stream size                              : 47.2 KiB (0%)
  345. Title                                    : Simplified
  346. Language                                 : Chinese
  347. Default                                  : No
  348. Forced                                   : No
  349. Text #24
  350. ID                                       : 26
  351. Format                                   : UTF-8
  352. Codec ID                                 : S_TEXT/UTF8
  353. Codec ID/Info                            : UTF-8 Plain Text
  354. Duration                                 : 2 h 14 min
  355. Bit rate                                 : 38 b/s
  356. Count of elements                        : 1645
  357. Stream size                              : 37.5 KiB (0%)
  358. Title                                    : Traditional
  359. Language                                 : Chinese
  360. Default                                  : No
  361. Forced                                   : No
  362. Text #25
  363. ID                                       : 27
  364. Format                                   : UTF-8
  365. Codec ID                                 : S_TEXT/UTF8
  366. Codec ID/Info                            : UTF-8 Plain Text
  367. Duration                                 : 2 h 14 min
  368. Bit rate                                 : 33 b/s
  369. Count of elements                        : 1588
  370. Stream size                              : 32.9 KiB (0%)
  371. Title                                    : Traditional, Hong Kong
  372. Language                                 : Chinese
  373. Default                                  : No
  374. Forced                                   : No
复制代码




TAGS 动作 冒险 科幻 /

磁力链:
  • magnet:?xt=urn:btih:08235E417C25427FF117386462D6343D5EFEF3A9
上传的附件:
BT9527电影天堂 1、BT9527电影天堂提供的BT文件均来源于互联网抓取,只供网友学习交流、技术提升使用。
2、我们遵守BitTorrent点对点协议原则,任何版权问题请联系原资源发布商,我们不处理任何版权纠纷,谢谢!如有争议请联系邮箱:BT9527#hotmail.com(#换成@)
3、如果您发现某页面或地址有错误,请联系站长邮箱BT9527#hotmail.com(#换成@),我们会尽快处理。您的热心是对BT9527电影天堂最大的支持。
4、本站建议去正规影院观看电影以支持电影行业发展。
最新回复 (0)

你可以在 登录 or 注册 后,对此帖发表评论!

返回
发新帖