银河护卫队[IMAX满屏版][简繁英字幕].Guardians.of.the.Galaxy.2014.IMAX.2160p.HDR.DSNP.WEB-DL.H.265.DDP5.1.Atmos-HDBWEB 14.64GB

版主小s 4月前 230

银河护卫队[IMAX满屏版][简繁英字幕].Guardians.of.the.Galaxy.2014.IMAX.2160p.HDR.DSNP.WEB-DL.H.265.DDP5.1.Atmos-HDBWEB 14.64GB

◎译 名 银河护卫队 / 银河守护队(港) / 星际异攻队(台) / 银河守卫者 / 银河守护者 / Full Tilt / G.O.T.G.

◎片 名 Guardians of the Galaxy

◎年 代 2014

◎产 地 美国 / 英国

◎类 别 动作 / 科幻 / 冒险

◎语 言 英语 / 萨卡语

◎上映日期 2014-10-10(中国大陆) / 2014-07-21(洛杉矶首映) / 2014-08-01(美国)

◎IMDb链接 https://www.imdb.com/title/tt2015381/

◎豆瓣评分 8.1/10 (474976人评价)

◎豆瓣链接 https://movie.douban.com/subject/7065154/

◎片 长 121分钟

◎导 演 詹姆斯·古恩 James Gunn (id:1092322)

◎编 剧 詹姆斯·古恩 James Gunn (id:1092322)

尼科尔·帕尔曼 Nicole Perlman (id:1332275)

丹·阿布内特 Dan Abnett (id:1332273)

安迪·兰宁 Andy Lanning (id:1332276)

Joanna Chamberlain Joanna Chamberlain (id:1332277)

◎演 员 克里斯·帕拉特 Chris Pratt (id:1017967)

佐伊·索尔达娜 Zoe Saldana (id:1047985)

布莱德利·库珀 Bradley Cooper (id:1013757)

范·迪塞尔 Vin Diesel (id:1041020)

戴夫·巴蒂斯塔 Dave Bautista (id:1014003)

李·佩斯 Lee Pace (id:1018975)

迈克尔·鲁克 Michael Rooker (id:1002751)

凯伦·吉兰 Karen Gillan (id:1036344)

杰曼·翰苏 Djimon Hounsou (id:1044880)

本尼西奥·德尔·托罗 Benicio del Toro (id:1041005)

约翰·C·赖利 John C. Reilly (id:1017907)

格伦·克洛斯 Glenn Close (id:1031875)

劳拉·哈德克 Laura Haddock (id:1324587)

肖恩·古恩 Sean Gunn (id:1022552)

彼得·塞拉菲诺威茨 Peter Serafinowicz (id:1010635)

埃米特·斯坎伦 Emmett J Scanlan (id:1326642)

奥菲利亚·拉维邦德 Ophelia Lovibond (id:1004674)

王丽雅 Leila Wong (id:1342094)

格拉汉姆·谢尔斯 Graham Shiels (id:1175892)

约翰·布罗特顿 John Brotherton (id:1321939)

罗布·赞比 Rob Zombie (id:1013854)

拉尔夫·伊内森 Ralph Ineson (id:1108378)

布鲁斯·麦克金伦 Bruce Mackinnon (id:1173535)

詹姆斯·古恩 James Gunn (id:1092322)

安蒂·哈卡拉 Antti Hakala (id:1346540)

伍凤春 Fengchun Wu (id:1335359)

叶卡捷琳娜·扎利特科 Ekaterina Zalitko (id:1443747)

Janis Ahern Janis Ahern (id:1463322)

斯坦·李 Stan Lee (id:1013888)

玛拉马·科利特 Marama Corlett (id:1321771)

埃里克斯·德尼索夫 Alexis Denisof (id:1031897)

弗兰克·吉尔霍利 Frank Gilhooley (id:1212805)

迪索·拉莫斯 Diezel Ramos (id:1341036)

罗南·萨莫尔斯 Ronan Summers (id:1336753)

梅利亚·科尔林 Melia Kreiling (id:1327083)

Joanna Chamberlain Joanna Chamberlain (id:1332277)

乔什·布洛林 Josh Brolin (id:1004568)

恩佐·科伦蒂 Enzo Cilenti (id:1075239)

米凯拉·霍沃 Mikaela Hoover (id:1229185)

托马斯·阿拉纳 Tomas Arana (id:1057639)

布兰登·费尔 Brendan Fehr (id:1040563)

沙利夫·阿特金斯 Sharif Atkins (id:1004894)

妮可·亚历山德拉·希普利 Nicole Alexandra Shipley (id:1332143)

马克斯·沃罗特斯利 Max Wrottesley (id:1335822)

格雷格·亨利 Gregg Henry (id:1048224)

克里斯托弗·法里班克 Christopher Fairbank (id:1085042)

内森·菲利安 Nathan Fillion (id:1000003)

瓦耶特·奥莱夫 Wyatt Oleff (id:1343727)

凯文·费奇 Kevin Feige (id:1340830)

路易斯·德·埃斯波西托 Louis D'Esposito (id:1345032)

泰勒·贝茨 Tyler Bates (id:1278075)

本·戴维斯 Ben Davis (id:1385007)

Jerad Marantz Jerad Marantz (id:1454186)

亚历山德拉·伯恩 Alexandra Byrne (id:1279783)

劳尔·佩雷斯 Raul Perez (id:1405397)

斯特凡·切雷蒂 Stephane Ceretti (id:1029609)

迈克尔·狄龙 Michael Dillon (id:1230257)

劳伦·麦卡勒姆 Lauren McCallum (id:1416840)

托马斯·尼特曼 Thomas Nittmann (id:1414106)

拉斐尔·皮门特尔 Raphael A. Pimentel (id:1419122)

魯伊德加多 Ruy Delgado (id:1404954)

卡洛斯·华达德 Carlos Ciudad (id:1414095)

林童 Tong Jason Lin (id:1379623)

伊万·雅格布斯 Evan Jacobs (id:1042616)

◎简 介

彼得·奎尔(克里斯·帕拉特 Chris Pratt 饰)是一名从小被劫持到外太空的地球人,在义父勇度(迈克尔·鲁克 Michael Rooker 饰)的培养下成了一个终极混混,自称“星爵”。一次行动中他偷了一块神秘球体,便成为了赏金猎人火箭浣熊(布莱德利·库珀 B radl ey Cooper 配音)、树人格鲁特(范·迪塞尔 Vin Diesel 配音)的绑架目标,而神秘的卡魔拉(佐伊·索尔达娜 Zoe Saldana 饰)也对神秘球体势在必得。经过笑料百出的坎坷遭遇,星爵被迫和这三人,以及复仇心切的“毁灭者”德拉克斯(戴夫·巴蒂斯塔 Dave Batista 饰)组成小分队逃避“指控者”罗南(李·佩斯 Lee Pace 饰)的追杀。然而这个神秘球体拥有无穷的力量,小分队必须团结一致对付罗南,才有可能解救整个银河系,银河护卫队由此诞生。

◎获奖情况 (共10项)

第87届奥斯卡金像奖 (2015)

最佳视觉效果(提名)

最佳化妆与发型设计(提名)

第42届动画安妮奖 (2015)

最佳真人电影动画角色(提名)

└──Kevin Spruce (id:1298193)

第67届美国编剧工会奖 (2015)

电影奖 最佳改编剧本(提名)

第18届好莱坞电影奖 (2014)

年度化妆

最佳卖座片

第1届豆瓣电影年度榜单 (2014)

最受关注的院线电影(提名)

年度电影原声(提名)

10月最受关注电影(提名)

第5届豆瓣电影鑫像奖 (2015)

鑫豆单元 最佳影片(外语)(提名)

  1. ##### MediaInfo ######

  2. General

  3. Unique ID : 43504940989829089946200654635461307322 (0x20BABF3217DA2615032F0050875CEBBA)

  4. Complete name : Guardians.of.the.Galaxy.2014.IMAX.2160p.HDR.DSNP.WEB-DL.H.265.DDP5.1.Atmos-HDBWEB.mkv

  5. Format : Matroska

  6. Format version : Version 4

  7. File size : 14.6 GiB

  8. Duration : 2 h 0 min

  9. Overall bit rate : 17.4 Mb/s

  10. Encoded date : UTC 2022-05-27 07:31:16

  11. Writing application : mkvmerge v67.0.0 ('Under Stars') 64-bit

  12. Writing library : libebml v1.4.2 + libmatroska v1.6.4

  13. Video

  14. ID : 1

  15. Format : HEVC

  16. Format/Info : High Efficiency Video Coding

  17. Format profile : Main 10@L5@High

  18. HDR format : SMPTE ST 2086, HDR10 compatible

  19. Codec ID : V_MPEGH/ISO/HEVC

  20. Duration : 2 h 0 min

  21. Bit rate : 16.6 Mb/s

  22. Width : 3 840 pixels

  23. Height : 2 160 pixels

  24. Display aspect ratio : 16:9

  25. Frame rate mode : Constant

  26. Frame rate : 23.976 (24000/1001/53354) FPS

  27. Color space : YUV

  28. Chroma subsampling : 4:2:0

  29. Bit depth : 10 bits

  30. Bits/(Pixel*Frame) : 0.083

  31. Stream size : 14.0 GiB (96%)

  32. Language : English

  33. Default : Yes

  34. Forced : No

  35. Color range : Limited

  36. Color primaries : BT.2020

  37. Transfer characteristics : PQ

  38. Matrix coefficients : BT.2020 non-constant

  39. Mastering display color primaries : Display P3

  40. Mastering display luminance : min: 0.0050 cd/m2, max: 4000 cd/m2

  41. Audio

  42. ID : 2

  43. Format : E-AC-3 JOC

  44. Format/Info : Enhanced AC-3 with Joint Object Coding

  45. Commercial name : Dolby Digital Plus with Dolby Atmos

  46. Codec ID : A_EAC3

  47. Duration : 2 h 0 min

  48. Bit rate mode : Constant

  49. Bit rate : 768 kb/s

  50. Channel(s) : 6 channels

  51. Channel layout : L R C LFE Ls Rs

  52. Sampling rate : 48.0 kHz

  53. Frame rate : 31.250 FPS (1536 SPF)

  54. Compression mode : Lossy

  55. Stream size : 664 MiB (4%)

  56. Language : English

  57. Service kind : Complete Main

  58. Default : Yes

  59. Forced : No

  60. Complexity index : 16

  61. Number of dynamic objects : 15

  62. Bed channel count : 1 channel

  63. Bed channel configuration : LFE

  64. Text #1

  65. ID : 3

  66. Format : UTF-8

  67. Codec ID : S_TEXT/UTF8

  68. Codec ID/Info : UTF-8 Plain Text

  69. Duration : 2 h 0 min

  70. Bit rate : 52 b/s

  71. Count of elements : 1667

  72. Stream size : 46.0 KiB (0%)

  73. Title : SDH

  74. Language : English

  75. Default : No

  76. Forced : No

  77. Text #2

  78. ID : 4

  79. Format : UTF-8

  80. Codec ID : S_TEXT/UTF8

  81. Codec ID/Info : UTF-8 Plain Text

  82. Duration : 2 h 0 min

  83. Bit rate : 44 b/s

  84. Count of elements : 1272

  85. Stream size : 39.1 KiB (0%)

  86. Language : Danish

  87. Default : No

  88. Forced : No

  89. Text #3

  90. ID : 5

  91. Format : UTF-8

  92. Codec ID : S_TEXT/UTF8

  93. Codec ID/Info : UTF-8 Plain Text

  94. Duration : 2 h 0 min

  95. Bit rate : 39 b/s

  96. Count of elements : 1407

  97. Stream size : 35.3 KiB (0%)

  98. Language : German

  99. Default : No

  100. Forced : No

  101. Text #4

  102. ID : 6

  103. Format : UTF-8

  104. Codec ID : S_TEXT/UTF8

  105. Codec ID/Info : UTF-8 Plain Text

  106. Duration : 2 h 0 min

  107. Bit rate : 46 b/s

  108. Count of elements : 1443

  109. Stream size : 41.2 KiB (0%)

  110. Title : Latin America

  111. Language : Spanish

  112. Default : No

  113. Forced : No

  114. Text #5

  115. ID : 7

  116. Format : UTF-8

  117. Codec ID : S_TEXT/UTF8

  118. Codec ID/Info : UTF-8 Plain Text

  119. Duration : 2 h 0 min

  120. Bit rate : 43 b/s

  121. Count of elements : 1424

  122. Stream size : 38.3 KiB (0%)

  123. Language : Spanish

  124. Default : No

  125. Forced : No

  126. Text #6

  127. ID : 8

  128. Format : UTF-8

  129. Codec ID : S_TEXT/UTF8

  130. Codec ID/Info : UTF-8 Plain Text

  131. Duration : 2 h 0 min

  132. Bit rate : 44 b/s

  133. Count of elements : 1396

  134. Stream size : 39.0 KiB (0%)

  135. Language : Finnish

  136. Default : No

  137. Forced : No

  138. Text #7

  139. ID : 9

  140. Format : UTF-8

  141. Codec ID : S_TEXT/UTF8

  142. Codec ID/Info : UTF-8 Plain Text

  143. Duration : 2 h 0 min

  144. Bit rate : 50 b/s

  145. Count of elements : 1799

  146. Stream size : 44.2 KiB (0%)

  147. Title : SDH

  148. Language : French

  149. Default : No

  150. Forced : No

  151. Text #8

  152. ID : 10

  153. Format : UTF-8

  154. Codec ID : S_TEXT/UTF8

  155. Codec ID/Info : UTF-8 Plain Text

  156. Duration : 2 h 0 min

  157. Bit rate : 40 b/s

  158. Count of elements : 1422

  159. Stream size : 35.5 KiB (0%)

  160. Language : French

  161. Default : No

  162. Forced : No

  163. Text #9

  164. ID : 11

  165. Format : UTF-8

  166. Codec ID : S_TEXT/UTF8

  167. Codec ID/Info : UTF-8 Plain Text

  168. Duration : 2 h 0 min

  169. Bit rate : 47 b/s

  170. Count of elements : 1422

  171. Stream size : 42.0 KiB (0%)

  172. Language : Icelandic

  173. Default : No

  174. Forced : No

  175. Text #10

  176. ID : 12

  177. Format : UTF-8

  178. Codec ID : S_TEXT/UTF8

  179. Codec ID/Info : UTF-8 Plain Text

  180. Duration : 2 h 0 min

  181. Bit rate : 48 b/s

  182. Count of elements : 1426

  183. Stream size : 43.0 KiB (0%)

  184. Language : Italian

  185. Default : No

  186. Forced : No

  187. Text #11

  188. ID : 13

  189. Format : UTF-8

  190. Codec ID : S_TEXT/UTF8

  191. Codec ID/Info : UTF-8 Plain Text

  192. Duration : 2 h 0 min

  193. Bit rate : 37 b/s

  194. Count of elements : 1211

  195. Stream size : 33.5 KiB (0%)

  196. Language : Japanese

  197. Default : No

  198. Forced : No

  199. Text #12

  200. ID : 14

  201. Format : UTF-8

  202. Codec ID : S_TEXT/UTF8

  203. Codec ID/Info : UTF-8 Plain Text

  204. Duration : 2 h 0 min

  205. Bit rate : 46 b/s

  206. Count of elements : 1421

  207. Stream size : 41.0 KiB (0%)

  208. Language : Korean

  209. Default : No

  210. Forced : No

  211. Text #13

  212. ID : 15

  213. Format : UTF-8

  214. Codec ID : S_TEXT/UTF8

  215. Codec ID/Info : UTF-8 Plain Text

  216. Duration : 2 h 0 min

  217. Bit rate : 45 b/s

  218. Count of elements : 1424

  219. Stream size : 40.3 KiB (0%)

  220. Language : Norwegian Bokmal

  221. Default : No

  222. Forced : No

  223. Text #14

  224. ID : 16

  225. Format : UTF-8

  226. Codec ID : S_TEXT/UTF8

  227. Codec ID/Info : UTF-8 Plain Text

  228. Duration : 2 h 0 min

  229. Bit rate : 40 b/s

  230. Count of elements : 1161

  231. Stream size : 35.6 KiB (0%)

  232. Language : Dutch

  233. Default : No

  234. Forced : No

  235. Text #15

  236. ID : 17

  237. Format : UTF-8

  238. Codec ID : S_TEXT/UTF8

  239. Codec ID/Info : UTF-8 Plain Text

  240. Duration : 2 h 0 min

  241. Bit rate : 37 b/s

  242. Count of elements : 1377

  243. Stream size : 33.3 KiB (0%)

  244. Language : Polish

  245. Default : No

  246. Forced : No

  247. Text #16

  248. ID : 18

  249. Format : UTF-8

  250. Codec ID : S_TEXT/UTF8

  251. Codec ID/Info : UTF-8 Plain Text

  252. Duration : 2 h 0 min

  253. Bit rate : 45 b/s

  254. Count of elements : 1421

  255. Stream size : 40.4 KiB (0%)

  256. Title : Brazil

  257. Language : Portuguese

  258. Default : No

  259. Forced : No

  260. Text #17

  261. ID : 19

  262. Format : UTF-8

  263. Codec ID : S_TEXT/UTF8

  264. Codec ID/Info : UTF-8 Plain Text

  265. Duration : 2 h 0 min

  266. Bit rate : 46 b/s

  267. Count of elements : 1429

  268. Stream size : 41.5 KiB (0%)

  269. Language : Portuguese

  270. Default : No

  271. Forced : No

  272. Text #18

  273. ID : 20

  274. Format : UTF-8

  275. Codec ID : S_TEXT/UTF8

  276. Codec ID/Info : UTF-8 Plain Text

  277. Duration : 2 h 0 min

  278. Bit rate : 40 b/s

  279. Count of elements : 908

  280. Stream size : 36.0 KiB (0%)

  281. Language : Swedish

  282. Default : No

  283. Forced : No

  284. Text #19

  285. ID : 21

  286. Format : UTF-8

  287. Codec ID : S_TEXT/UTF8

  288. Codec ID/Info : UTF-8 Plain Text

  289. Duration : 2 h 0 min

  290. Bit rate : 54 b/s

  291. Count of elements : 1691

  292. Stream size : 48.1 KiB (0%)

  293. Title : Simplified

  294. Language : Chinese

  295. Default : No

  296. Forced : No

  297. Text #20

  298. ID : 22

  299. Format : UTF-8

  300. Codec ID : S_TEXT/UTF8

  301. Codec ID/Info : UTF-8 Plain Text

  302. Duration : 2 h 0 min

  303. Bit rate : 35 b/s

  304. Count of elements : 1436

  305. Stream size : 31.5 KiB (0%)

  306. Title : Traditional

  307. Language : Chinese

  308. Default : No

  309. Forced : No

  310. Text #21

  311. ID : 23

  312. Format : UTF-8

  313. Codec ID : S_TEXT/UTF8

  314. Codec ID/Info : UTF-8 Plain Text

  315. Duration : 2 h 0 min

  316. Bit rate : 32 b/s

  317. Count of elements : 1426

  318. Stream size : 28.3 KiB (0%)

  319. Title : Traditional, Hong Kong

  320. Language : Chinese

  321. Default : No

  322. Forced : No


复制代码


TAGS 动作 冒险 科幻 /

磁力链:
  • magnet:?xt=urn:btih:D9D324808D272C150F5F67C113E8D529AF6F0C06
上传的附件:
BT9527电影天堂 1、BT9527电影天堂提供的BT文件均来源于互联网抓取,只供网友学习交流、技术提升使用。
2、我们遵守BitTorrent点对点协议原则,任何版权问题请联系原资源发布商,我们不处理任何版权纠纷,谢谢!如有争议请联系邮箱:BT9527#hotmail.com(#换成@)
3、如果您发现某页面或地址有错误,请联系站长邮箱BT9527#hotmail.com(#换成@),我们会尽快处理。您的热心是对BT9527电影天堂最大的支持。
4、本站建议去正规影院观看电影以支持电影行业发展。
最新回复 (0)

你可以在 登录 or 注册 后,对此帖发表评论!

返回
发新帖