蚁人2:黄蜂女现身[IMAX满屏版][简繁英字幕].Ant-Man.and.the.Wasp.2018.IMAX.2160p.HDR.DSNP.WEB-DL.H.265.DDP5.1.Atmos-HDBWEB 13.70GB

版主小s 4月前 278

◎译 名 蚁人2:黄蜂女现身 / 蚁侠2:黄蜂女现身(港) / 蚁人2 / 蚁人与黄蜂女(台) / Ant-Man 2

◎片 名 Ant-Man and the Wasp

◎年 代 2018

◎产 地 美国

◎类 别 动作 / 科幻 / 冒险

◎语 言 英语

◎上映日期 2018-08-24(中国大陆) / 2018-07-06(美国)

◎IMDb链接 https://www.imdb.com/title/tt5095030/

◎豆瓣评分 7.3/10 (423820人评价)

◎豆瓣链接 https://movie.douban.com/subject/26636712/

◎片 长 118分钟

◎导 演 佩顿·里德 Peyton Reed (id:1009586)

◎编 剧 克里斯·麦克纳 Chris McKenna (id:1331505)

埃里克·萨默斯 Erik Sommers (id:1368514)

保罗·路德 Paul Rudd (id:1002667)

安德鲁·贝伦 Andrew Barrer (id:1396835)

加百利·法拉利 Gabriel Ferrari (id:1375927)

亚当·麦凯 Adam McKay (id:1002735)

◎演 员 保罗·路德 Paul Rudd (id:1002667)

伊万杰琳·莉莉 Evangeline Lilly (id:1021963)

迈克尔·佩纳 Michael Pe?a (id:1131634)

汉娜·乔恩-卡门 Hannah John-Kamen (id:1350528)

沃尔顿·戈金斯 Walton Goggins (id:1098551)

鲍比·坎纳瓦尔 Bobby Cannavale (id:1044985)

朱迪·格雷尔 Judy Greer (id:1009256)

T.I. (id:1027329)

大卫·达斯马齐连 David Dastmalchian (id:1337583)

艾比·莱德·弗特森 Abby Ryder Fortson (id:1343373)

兰道尔·朴 Randall Park (id:1345622)

米歇尔·菲佛 Michelle Pfeiffer (id:1035642)

劳伦斯·菲什伯恩 Laurence Fishburne (id:1022596)

迈克尔·道格拉斯 Michael Douglas (id:1053620)

戈兰·卡斯蒂克 Goran Kostic (id:1178320)

罗布·阿切尔 Rob Archer (id:1396167)

肖恩·克莱尔 Sean Kleier (id:1365341)

本·戴维斯 Ben Davis (id:1175521)

迈克尔·瑟沃瑞斯 Michael Cerveris (id:1070527)

达克斯·格里芬 Dax Griffin (id:1091276)

海莉·洛维特 Hayley Lovitt (id:1349025)

玛德琳·麦格劳 Madeleine McGraw (id:1390576)

蒂姆·海德克 Tim Heidecker (id:1004932)

布莱恩·赫斯基 Brian Huskey (id:1191173)

朱莉娅·维拉 Julia Vera (id:1300005)

布莱恩·卢戈 Bryan Lugo (id:1188983)

托里·沃格尔 Torrey Vogel (id:1328831)

汤姆·夏普林 Tom Scharpling (id:1005520)

斯坦·李 Stan Lee (id:1013888)

约瑟夫·阿梅 Joseph Amey (id:1201081)

安迪·阿尼斯 Andy Arness (id:1014625)

威廉·W·巴伯 William W. Barbour (id:1393373)

玛塞拉·布拉吉奥 Marcella Bragio (id:1393377)

塞尔吉奥·布里奥内斯 Sergio Briones (id:1392779)

乔·布卡罗三世 Joe Bucaro III (id:1074157)

蒂莫西·卡尔 Timothy Carr (id:1392730)

贾迈尔·钱伯斯 Jamel Chambers (id:1392777)

扎卡里·卡伯森 Zachary Culbertson (id:1253019)

雅各布·埃文斯 Jacob Evans (id:1392727)

米歇尔·毛 Michelle Mao (id:1394733)

盖尔·甘布尔 Gail Gamble (id:1394735)

克里斯·加恩 Chris Gann (id:1000893)

约翰·盖蒂尔 John Gettier (id:1392772)

杰克·汉森 Jake Hanson (id:1393383)

卡茜·亨德利 Cassie Hendry (id:1393370)

安妮-玛丽·奥尔森 Anne-Marie Olsen (id:1430741)

罗伯特·廷斯利 Robert Tinsley (id:1402482)

查尔斯·胡斯托 Charles Justo (id:1437498)

黛布拉·诺顿-米勒 Debra Norton-Miller (id:1430779)

小戴维·M·桑多瓦尔 David M Sandoval Jr. (id:1430752)

凯文·费奇 Kevin Feige (id:1340830)

克里斯托弗·贝克 Christophe Beck (id:1278180)

丹·勒邦塔尔 Dan Lebental (id:1289612)

Louise Frogley Louise Frogley (id:1284250)

李·奥尔洛夫 Lee Orloff (id:1293624)

拉塞尔·厄尔 Russell Earl (id:1282937)

李·布雷格 Lee Briggs (id:1404953)

杰西卡卡林顿 Jessica Carrington (id:1404965)

丹尼·冈萨雷斯 Danny Gonzalez (id:1414099)

阿曼·加洛 Aman Gahlot (id:1411055)

莱斯利·钟 Leslie Chung (id:1410100)

戴恩·艾伦·史密斯 Dane Allan Smith (id:1407639)

劳尔·佩雷斯 Raul Perez (id:1405397)

丹尼尔·萨迪克 Daniel Sudick (id:1298615)

斯特凡·切雷蒂 Stephane Ceretti (id:1029609)

迈克尔·狄龙 Michael Dillon (id:1230257)

伊万·雅格布斯 Evan Jacobs (id:1042616)

林童 Tong Jason Lin (id:1379623)

托马斯·尼特曼 Thomas Nittmann (id:1414106)

拉斐尔·皮门特尔 Raphael A. Pimentel (id:1419122)

阿兹拉·阿尔坎 Azra Alkan (id:1419114)

雷妮·莫尼梅克 Renae Moneymaker (id:1399656)

英格丽德·克莱尼格 ingrid kleinig (id:1406942)

◎简 介

由于在“内战”中站到了美国队长一方,蚁人斯科特·朗(保罗·路德 Paul Rudd 饰)遭到了FBI的禁足惩罚。眼看离真正的自由还有几天功夫,偏偏麻烦找上门来。原来初代蚁人汉克·皮姆(迈克尔·道格拉斯 Michael Douglas 饰)通过研究发现,他的妻子黄蜂女(米歇尔·菲佛 Michelle Pfeiffer 饰)一定还活在量子领域,而斯科特是能够将妻子带回现实世界的唯一希望。不由分说,汉克的女儿霍普(伊万杰琳·莉莉 Nicole Lilly 饰)将斯科特带出房间。此后不久,他们不仅要躲避FBI的纠缠,更要提防来自神秘势力的袭击,而“幽灵”的出现更将斯科特等人带向前所未有的混乱当中。

斯科特能否顺利获得自由?初代黄蜂女是否还存活在量子领域的某处?

◎获奖情况 (共4项)

第25届美国演员工会奖 (2019)

电影最佳特技群戏(提名)

第17届美国视觉效果协会奖 (2019)

最佳真人电影CG背景(提名)

第5届豆瓣电影年度榜单 (2018)

评分最高的科幻/动作片(提名)

第4届豆瓣电影年度榜单 (2017)

最值得期待的外语电影(提名)

  1. ##### MediaInfo ######

  2. General

  3. Unique ID : 272022446693582771259849660379616694397 (0xCCA59E18A04B1D4A0CC8276076D2D07D)

  4. Complete name : Ant-Man.and.the.Wasp.2018.IMAX.2160p.HDR.DSNP.WEB-DL.H.265.DDP5.1.Atmos-HDBWEB.mkv

  5. Format : Matroska

  6. Format version : Version 4

  7. File size : 13.7 GiB

  8. Duration : 1 h 58 min

  9. Overall bit rate : 16.6 Mb/s

  10. Encoded date : UTC 2022-05-26 07:12:59

  11. Writing application : mkvmerge v67.0.0 ('Under Stars') 64-bit

  12. Writing library : libebml v1.4.2 + libmatroska v1.6.4

  13. Video

  14. ID : 1

  15. Format : HEVC

  16. Format/Info : High Efficiency Video Coding

  17. Format profile : Main 10@L5@High

  18. HDR format : SMPTE ST 2086, HDR10 compatible

  19. Codec ID : V_MPEGH/ISO/HEVC

  20. Duration : 1 h 58 min

  21. Bit rate : 15.8 Mb/s

  22. Width : 3 840 pixels

  23. Height : 2 160 pixels

  24. Display aspect ratio : 16:9

  25. Frame rate mode : Constant

  26. Frame rate : 23.976 (24000/1001/53354) FPS

  27. Color space : YUV

  28. Chroma subsampling : 4:2:0

  29. Bit depth : 10 bits

  30. Bits/(Pixel*Frame) : 0.080

  31. Stream size : 13.1 GiB (95%)

  32. Language : English

  33. Default : Yes

  34. Forced : No

  35. Color range : Limited

  36. Color primaries : BT.2020

  37. Transfer characteristics : PQ

  38. Matrix coefficients : BT.2020 non-constant

  39. Mastering display color primaries : Display P3

  40. Mastering display luminance : min: 0.0050 cd/m2, max: 4000 cd/m2

  41. Audio

  42. ID : 2

  43. Format : E-AC-3 JOC

  44. Format/Info : Enhanced AC-3 with Joint Object Coding

  45. Commercial name : Dolby Digital Plus with Dolby Atmos

  46. Codec ID : A_EAC3

  47. Duration : 1 h 58 min

  48. Bit rate mode : Constant

  49. Bit rate : 768 kb/s

  50. Channel(s) : 6 channels

  51. Channel layout : L R C LFE Ls Rs

  52. Sampling rate : 48.0 kHz

  53. Frame rate : 31.250 FPS (1536 SPF)

  54. Compression mode : Lossy

  55. Stream size : 649 MiB (5%)

  56. Language : English

  57. Service kind : Complete Main

  58. Default : Yes

  59. Forced : No

  60. Complexity index : 16

  61. Number of dynamic objects : 15

  62. Bed channel count : 1 channel

  63. Bed channel configuration : LFE

  64. Text #1

  65. ID : 3

  66. Format : UTF-8

  67. Codec ID : S_TEXT/UTF8

  68. Codec ID/Info : UTF-8 Plain Text

  69. Duration : 1 h 57 min

  70. Bit rate : 67 b/s

  71. Count of elements : 2137

  72. Stream size : 57.9 KiB (0%)

  73. Title : SDH

  74. Language : English

  75. Default : No

  76. Forced : No

  77. Text #2

  78. ID : 4

  79. Format : UTF-8

  80. Codec ID : S_TEXT/UTF8

  81. Codec ID/Info : UTF-8 Plain Text

  82. Duration : 1 h 57 min

  83. Bit rate : 52 b/s

  84. Count of elements : 1239

  85. Stream size : 45.4 KiB (0%)

  86. Language : Danish

  87. Default : No

  88. Forced : No

  89. Text #3

  90. ID : 5

  91. Format : UTF-8

  92. Codec ID : S_TEXT/UTF8

  93. Codec ID/Info : UTF-8 Plain Text

  94. Duration : 1 h 50 min

  95. Bit rate : 57 b/s

  96. Count of elements : 1612

  97. Stream size : 46.4 KiB (0%)

  98. Language : German

  99. Default : No

  100. Forced : No

  101. Text #4

  102. ID : 6

  103. Format : UTF-8

  104. Codec ID : S_TEXT/UTF8

  105. Codec ID/Info : UTF-8 Plain Text

  106. Duration : 1 h 57 min

  107. Bit rate : 66 b/s

  108. Count of elements : 1769

  109. Stream size : 57.0 KiB (0%)

  110. Title : Latin America (SDH)

  111. Language : Spanish

  112. Default : No

  113. Forced : No

  114. Text #5

  115. ID : 7

  116. Format : UTF-8

  117. Codec ID : S_TEXT/UTF8

  118. Codec ID/Info : UTF-8 Plain Text

  119. Duration : 1 h 57 min

  120. Bit rate : 56 b/s

  121. Count of elements : 1794

  122. Stream size : 48.8 KiB (0%)

  123. Title : Latin America

  124. Language : Spanish

  125. Default : No

  126. Forced : No

  127. Text #6

  128. ID : 8

  129. Format : UTF-8

  130. Codec ID : S_TEXT/UTF8

  131. Codec ID/Info : UTF-8 Plain Text

  132. Duration : 1 h 57 min

  133. Bit rate : 53 b/s

  134. Count of elements : 1753

  135. Stream size : 46.3 KiB (0%)

  136. Language : Finnish

  137. Default : No

  138. Forced : No

  139. Text #7

  140. ID : 9

  141. Format : UTF-8

  142. Codec ID : S_TEXT/UTF8

  143. Codec ID/Info : UTF-8 Plain Text

  144. Duration : 1 h 57 min

  145. Bit rate : 77 b/s

  146. Count of elements : 2080

  147. Stream size : 67.0 KiB (0%)

  148. Title : Canada (SDH)

  149. Language : French

  150. Default : No

  151. Forced : No

  152. Text #8

  153. ID : 10

  154. Format : UTF-8

  155. Codec ID : S_TEXT/UTF8

  156. Codec ID/Info : UTF-8 Plain Text

  157. Duration : 1 h 57 min

  158. Bit rate : 50 b/s

  159. Count of elements : 1790

  160. Stream size : 43.5 KiB (0%)

  161. Title : Canada

  162. Language : French

  163. Default : No

  164. Forced : No

  165. Text #9

  166. ID : 11

  167. Format : UTF-8

  168. Codec ID : S_TEXT/UTF8

  169. Codec ID/Info : UTF-8 Plain Text

  170. Duration : 1 h 57 min

  171. Bit rate : 50 b/s

  172. Count of elements : 1576

  173. Stream size : 44.0 KiB (0%)

  174. Language : French

  175. Default : No

  176. Forced : No

  177. Text #10

  178. ID : 12

  179. Format : UTF-8

  180. Codec ID : S_TEXT/UTF8

  181. Codec ID/Info : UTF-8 Plain Text

  182. Duration : 1 h 57 min

  183. Bit rate : 60 b/s

  184. Count of elements : 1754

  185. Stream size : 52.3 KiB (0%)

  186. Language : Icelandic

  187. Default : No

  188. Forced : No

  189. Text #11

  190. ID : 13

  191. Format : UTF-8

  192. Codec ID : S_TEXT/UTF8

  193. Codec ID/Info : UTF-8 Plain Text

  194. Duration : 1 h 57 min

  195. Bit rate : 60 b/s

  196. Count of elements : 1800

  197. Stream size : 52.4 KiB (0%)

  198. Language : Italian

  199. Default : No

  200. Forced : No

  201. Text #12

  202. ID : 14

  203. Format : UTF-8

  204. Codec ID : S_TEXT/UTF8

  205. Codec ID/Info : UTF-8 Plain Text

  206. Duration : 1 h 58 min

  207. Bit rate : 44 b/s

  208. Count of elements : 1599

  209. Stream size : 38.6 KiB (0%)

  210. Language : Japanese

  211. Default : No

  212. Forced : No

  213. Text #13

  214. ID : 15

  215. Format : UTF-8

  216. Codec ID : S_TEXT/UTF8

  217. Codec ID/Info : UTF-8 Plain Text

  218. Duration : 1 h 57 min

  219. Bit rate : 54 b/s

  220. Count of elements : 1755

  221. Stream size : 46.7 KiB (0%)

  222. Language : Korean

  223. Default : No

  224. Forced : No

  225. Text #14

  226. ID : 16

  227. Format : UTF-8

  228. Codec ID : S_TEXT/UTF8

  229. Codec ID/Info : UTF-8 Plain Text

  230. Duration : 1 h 57 min

  231. Bit rate : 54 b/s

  232. Count of elements : 1761

  233. Stream size : 46.9 KiB (0%)

  234. Language : Norwegian Bokmal

  235. Default : No

  236. Forced : No

  237. Text #15

  238. ID : 17

  239. Format : UTF-8

  240. Codec ID : S_TEXT/UTF8

  241. Codec ID/Info : UTF-8 Plain Text

  242. Duration : 1 h 57 min

  243. Bit rate : 51 b/s

  244. Count of elements : 1418

  245. Stream size : 44.4 KiB (0%)

  246. Language : Dutch

  247. Default : No

  248. Forced : No

  249. Text #16

  250. ID : 18

  251. Format : UTF-8

  252. Codec ID : S_TEXT/UTF8

  253. Codec ID/Info : UTF-8 Plain Text

  254. Duration : 1 h 57 min

  255. Bit rate : 52 b/s

  256. Count of elements : 1759

  257. Stream size : 45.6 KiB (0%)

  258. Language : Polish

  259. Default : No

  260. Forced : No

  261. Text #17

  262. ID : 19

  263. Format : UTF-8

  264. Codec ID : S_TEXT/UTF8

  265. Codec ID/Info : UTF-8 Plain Text

  266. Duration : 1 h 57 min

  267. Bit rate : 63 b/s

  268. Count of elements : 2193

  269. Stream size : 54.9 KiB (0%)

  270. Title : Brazil (SDH)

  271. Language : Portuguese

  272. Default : No

  273. Forced : No

  274. Text #18

  275. ID : 20

  276. Format : UTF-8

  277. Codec ID : S_TEXT/UTF8

  278. Codec ID/Info : UTF-8 Plain Text

  279. Duration : 1 h 57 min

  280. Bit rate : 55 b/s

  281. Count of elements : 1767

  282. Stream size : 48.1 KiB (0%)

  283. Title : Brazil

  284. Language : Portuguese

  285. Default : No

  286. Forced : No

  287. Text #19

  288. ID : 21

  289. Format : UTF-8

  290. Codec ID : S_TEXT/UTF8

  291. Codec ID/Info : UTF-8 Plain Text

  292. Duration : 1 h 57 min

  293. Bit rate : 58 b/s

  294. Count of elements : 1798

  295. Stream size : 50.9 KiB (0%)

  296. Language : Portuguese

  297. Default : No

  298. Forced : No

  299. Text #20

  300. ID : 22

  301. Format : UTF-8

  302. Codec ID : S_TEXT/UTF8

  303. Codec ID/Info : UTF-8 Plain Text

  304. Duration : 1 h 57 min

  305. Bit rate : 51 b/s

  306. Count of elements : 1224

  307. Stream size : 44.6 KiB (0%)

  308. Language : Swedish

  309. Default : No

  310. Forced : No

  311. Text #21

  312. ID : 23

  313. Format : UTF-8

  314. Codec ID : S_TEXT/UTF8

  315. Codec ID/Info : UTF-8 Plain Text

  316. Duration : 1 h 57 min

  317. Bit rate : 58 b/s

  318. Count of elements : 1842

  319. Stream size : 50.6 KiB (0%)

  320. Title : Simplified

  321. Language : Chinese

  322. Default : No

  323. Forced : No

  324. Text #22

  325. ID : 24

  326. Format : UTF-8

  327. Codec ID : S_TEXT/UTF8

  328. Codec ID/Info : UTF-8 Plain Text

  329. Duration : 1 h 57 min

  330. Bit rate : 47 b/s

  331. Count of elements : 1806

  332. Stream size : 41.2 KiB (0%)

  333. Title : Traditional

  334. Language : Chinese

  335. Default : No

  336. Forced : No

  337. Text #23

  338. ID : 25

  339. Format : UTF-8

  340. Codec ID : S_TEXT/UTF8

  341. Codec ID/Info : UTF-8 Plain Text

  342. Duration : 1 h 57 min

  343. Bit rate : 40 b/s

  344. Count of elements : 1766

  345. Stream size : 35.1 KiB (0%)

  346. Title : Traditional, Hong Kong

  347. Language : Chinese

  348. Default : No

  349. Forced : No


复制代码


TAGS 动作 冒险 科幻 /

磁力链:
  • magnet:?xt=urn:btih:BFDD82987AAAAC683DA456184E4957801199D097
上传的附件:
BT9527电影天堂 1、BT9527电影天堂提供的BT文件均来源于互联网抓取,只供网友学习交流、技术提升使用。
2、我们遵守BitTorrent点对点协议原则,任何版权问题请联系原资源发布商,我们不处理任何版权纠纷,谢谢!如有争议请联系邮箱:BT9527#hotmail.com(#换成@)
3、如果您发现某页面或地址有错误,请联系站长邮箱BT9527#hotmail.com(#换成@),我们会尽快处理。您的热心是对BT9527电影天堂最大的支持。
4、本站建议去正规影院观看电影以支持电影行业发展。
最新回复 (0)

你可以在 登录 or 注册 后,对此帖发表评论!

返回
发新帖