永恒族[IMAX满屏版][简繁英字幕].Eternals.2021.IMAX.2160p.HDR.DSNP.WEB-DL.H.265.DDP5.1.Atmos-HDBWEB 18.84GB

版主小s 1月前 158

◎译 名 永恒族 / 永恒神族 / The Eternals

◎片 名 Eternals

◎年 代 2021

◎产 地 美国

◎类 别 动作 / 科幻 / 奇幻 / 冒险

◎语 言 英语 / 美国手语 / 西班牙语 / 拉丁语 / 古希腊语

◎上映日期 2021-11-05(美国)

◎IMDb链接 https://www.imdb.com/title/tt9032400/

◎豆瓣评分 5.8/10 (108475人评价)

◎豆瓣链接 https://movie.douban.com/subject/30223888/

◎片 长 156分钟

◎导 演 赵婷 Chloé Zhao (id:1349079)

◎编 剧 赵婷 Chloé Zhao (id:1349079)

帕特里克·伯利 Patrick Burleigh (id:1452381)

瑞恩·弗雷波 Ryan Firpo (id:1393229)

马修·弗雷波 Matthew K. Firpo (id:1393230)

杰克·科比 Jack Kirby (id:1050183)

◎演 员 嘉玛·陈 Gemma Chan (id:1036516)

理查德·麦登 Richard Madden (id:1314927)

安吉丽娜·朱莉 Angelina Jolie (id:1054447)

萨尔玛·海耶克 Salma Hayek (id:1047986)

基特·哈灵顿 Kit Harington (id:1314989)

库梅尔·南贾尼 Kumail Nanjiani (id:1334517)

莉亚·麦克休 Lia McHugh (id:1420182)

布莱恩·泰里·亨利 Brian Tyree Henry (id:1390623)

劳伦·利德洛夫 Lauren Ridloff (id:1420181)

巴里·基奥恩 Barry Keoghan (id:1360874)

马东锡 Don Lee (id:1322205)

哈里什·帕特尔 Harish Patel (id:1328805)

比尔·斯卡斯加德 Bill Skarsg?rd (id:1022798)

哈斯·塞雷曼 Haaz Sleiman (id:1309189)

以扫·丹尼尔·克罗斯 Esai Daniel Cross (id:1463881)

哈里·斯泰尔斯 Harry Styles (id:1323310)

艾伦·斯科特 Alan Scott (id:1463882)

汉娜·多德 Hannah Dodd (id:1463883)

妮基塔·查达哈 Nikkita Chadha (id:1449234)

格雷厄姆·福克斯 Grahame Fox (id:1392998)

赞恩·阿尔·拉菲亚 Zain al-Rafeea (id:1393813)

卢西娅·埃夫斯塔希奥 Lucia Efstathiou (id:1434959)

帕顿·奥斯瓦尔特 Patton Oswalt (id:1007015)

大卫·卡耶 David Kaye (id:1113688)

马赫沙拉·阿里 Mahershala Ali (id:1004702)

布伦达·洛伦娜·加西亚 Brenda Lorena Garcia (id:1449801)

吉安尼·卡尔切蒂 Gianni Calchetti (id:1445091)

凯文·费奇 Kevin Feige (id:1340830)

拉民·贾瓦迪 Ramin Djawadi (id:1302385)

本·戴维斯 Ben Davis (id:1385007)

萨米·谢尔顿 Sammy Sheldon (id:1286999)

◎简 介

公元前5000年,“天神族”的“审判者”阿里瑟姆从奥林匹亚星挑选10位拥有超能力的“永恒族”,派遣他们前往地球抵御“变异族”的入侵。几千年来,永恒族一直帮助人类抵御变异族入侵。最后一批变异族在1521年被消灭后,永恒族内部对于是否继续保护人类一事产生分歧,最终决定分开,并等待阿里瑟姆将他们召唤回母星。

时间到了现在,瑟西(嘉玛·陈 Gemma Chan 饰)和丝派特(莉亚·麦克休 Lia McHugh 饰)一同住在英国伦敦。500年前,瑟西与前男友伊卡瑞斯(理查德·麦登 Richard Madden 饰)分开,并结交了在伦敦自然史博物馆工作的戴恩·惠特曼(基特·哈灵顿 Kit Harington 饰)。一天晚上,一位名叫克罗的变异族突袭三人,伊卡瑞斯却突然出现,暂时击退克罗。瑟西、丝派特和伊卡瑞斯意识到情况不妙,于是决定紧急召集其他人以应对新的威胁…...

  1. ##### MediaInfo ######

  2. General

  3. Unique ID : 1196315355088684907943160170729857834 (0xE666E69F84D9E7F588BA785172632A)

  4. Complete name : Eternals.2021.IMAX.2160p.HDR.DSNP.WEB-DL.H.265.DDP5.1.Atmos-HDBWEB.mkv

  5. Format : Matroska

  6. Format version : Version 4

  7. File size : 18.8 GiB

  8. Duration : 2 h 35 min

  9. Overall bit rate : 17.3 Mb/s

  10. Encoded date : UTC 2022-05-23 09:53:17

  11. Writing application : mkvmerge v67.0.0 ('Under Stars') 64-bit

  12. Writing library : libebml v1.4.2 + libmatroska v1.6.4

  13. Video

  14. ID : 1

  15. Format : HEVC

  16. Format/Info : High Efficiency Video Coding

  17. Format profile : Main 10@L5@High

  18. HDR format : SMPTE ST 2086, HDR10 compatible

  19. Codec ID : V_MPEGH/ISO/HEVC

  20. Duration : 2 h 35 min

  21. Bit rate : 16.5 Mb/s

  22. Width : 3 840 pixels

  23. Height : 2 160 pixels

  24. Display aspect ratio : 16:9

  25. Frame rate mode : Constant

  26. Frame rate : 23.976 (24000/1001/53354) FPS

  27. Color space : YUV

  28. Chroma subsampling : 4:2:0

  29. Bit depth : 10 bits

  30. Bits/(Pixel*Frame) : 0.083

  31. Stream size : 18.0 GiB (96%)

  32. Language : English

  33. Default : Yes

  34. Forced : No

  35. Color range : Limited

  36. Color primaries : BT.2020

  37. Transfer characteristics : PQ

  38. Matrix coefficients : BT.2020 non-constant

  39. Mastering display color primaries : Display P3

  40. Mastering display luminance : min: 0.0000 cd/m2, max: 1000 cd/m2

  41. Audio

  42. ID : 2

  43. Format : E-AC-3 JOC

  44. Format/Info : Enhanced AC-3 with Joint Object Coding

  45. Commercial name : Dolby Digital Plus with Dolby Atmos

  46. Codec ID : A_EAC3

  47. Duration : 2 h 35 min

  48. Bit rate mode : Constant

  49. Bit rate : 768 kb/s

  50. Channel(s) : 6 channels

  51. Channel layout : L R C LFE Ls Rs

  52. Sampling rate : 48.0 kHz

  53. Frame rate : 31.250 FPS (1536 SPF)

  54. Compression mode : Lossy

  55. Stream size : 856 MiB (4%)

  56. Language : English

  57. Service kind : Complete Main

  58. Default : Yes

  59. Forced : No

  60. Complexity index : 16

  61. Number of dynamic objects : 15

  62. Bed channel count : 1 channel

  63. Bed channel configuration : LFE

  64. Text #1

  65. ID : 3

  66. Format : UTF-8

  67. Codec ID : S_TEXT/UTF8

  68. Codec ID/Info : UTF-8 Plain Text

  69. Duration : 2 h 32 min

  70. Bit rate : 1 b/s

  71. Count of elements : 80

  72. Stream size : 1.76 KiB (0%)

  73. Title : Forced

  74. Language : English

  75. Default : No

  76. Forced : Yes

  77. Text #2

  78. ID : 4

  79. Format : UTF-8

  80. Codec ID : S_TEXT/UTF8

  81. Codec ID/Info : UTF-8 Plain Text

  82. Duration : 2 h 33 min

  83. Bit rate : 51 b/s

  84. Count of elements : 2212

  85. Stream size : 57.8 KiB (0%)

  86. Title : SDH

  87. Language : English

  88. Default : No

  89. Forced : No

  90. Text #3

  91. ID : 5

  92. Format : UTF-8

  93. Codec ID : S_TEXT/UTF8

  94. Codec ID/Info : UTF-8 Plain Text

  95. Duration : 2 h 35 min

  96. Bit rate : 37 b/s

  97. Count of elements : 1108

  98. Stream size : 42.5 KiB (0%)

  99. Language : Danish

  100. Default : No

  101. Forced : No

  102. Text #4

  103. ID : 6

  104. Format : UTF-8

  105. Codec ID : S_TEXT/UTF8

  106. Codec ID/Info : UTF-8 Plain Text

  107. Duration : 2 h 35 min

  108. Bit rate : 37 b/s

  109. Count of elements : 1514

  110. Stream size : 42.3 KiB (0%)

  111. Language : German

  112. Default : No

  113. Forced : No

  114. Text #5

  115. ID : 7

  116. Format : UTF-8

  117. Codec ID : S_TEXT/UTF8

  118. Codec ID/Info : UTF-8 Plain Text

  119. Duration : 2 h 35 min

  120. Bit rate : 42 b/s

  121. Count of elements : 1736

  122. Stream size : 48.6 KiB (0%)

  123. Title : Latin America (SDH)

  124. Language : Spanish

  125. Default : No

  126. Forced : No

  127. Text #6

  128. ID : 8

  129. Format : UTF-8

  130. Codec ID : S_TEXT/UTF8

  131. Codec ID/Info : UTF-8 Plain Text

  132. Duration : 2 h 35 min

  133. Bit rate : 41 b/s

  134. Count of elements : 1645

  135. Stream size : 47.6 KiB (0%)

  136. Title : Latin America

  137. Language : Spanish

  138. Default : No

  139. Forced : No

  140. Text #7

  141. ID : 9

  142. Format : UTF-8

  143. Codec ID : S_TEXT/UTF8

  144. Codec ID/Info : UTF-8 Plain Text

  145. Duration : 2 h 35 min

  146. Bit rate : 39 b/s

  147. Count of elements : 1640

  148. Stream size : 44.6 KiB (0%)

  149. Language : Spanish

  150. Default : No

  151. Forced : No

  152. Text #8

  153. ID : 10

  154. Format : UTF-8

  155. Codec ID : S_TEXT/UTF8

  156. Codec ID/Info : UTF-8 Plain Text

  157. Duration : 2 h 35 min

  158. Bit rate : 41 b/s

  159. Count of elements : 1666

  160. Stream size : 47.8 KiB (0%)

  161. Language : Finnish

  162. Default : No

  163. Forced : No

  164. Text #9

  165. ID : 11

  166. Format : UTF-8

  167. Codec ID : S_TEXT/UTF8

  168. Codec ID/Info : UTF-8 Plain Text

  169. Duration : 2 h 35 min

  170. Bit rate : 59 b/s

  171. Count of elements : 2261

  172. Stream size : 67.5 KiB (0%)

  173. Title : Canada (SDH)

  174. Language : French

  175. Default : No

  176. Forced : No

  177. Text #10

  178. ID : 12

  179. Format : UTF-8

  180. Codec ID : S_TEXT/UTF8

  181. Codec ID/Info : UTF-8 Plain Text

  182. Duration : 2 h 35 min

  183. Bit rate : 44 b/s

  184. Count of elements : 1694

  185. Stream size : 50.3 KiB (0%)

  186. Title : Canada

  187. Language : French

  188. Default : No

  189. Forced : No

  190. Text #11

  191. ID : 13

  192. Format : UTF-8

  193. Codec ID : S_TEXT/UTF8

  194. Codec ID/Info : UTF-8 Plain Text

  195. Duration : 2 h 35 min

  196. Bit rate : 37 b/s

  197. Count of elements : 1585

  198. Stream size : 42.5 KiB (0%)

  199. Language : French

  200. Default : No

  201. Forced : No

  202. Text #12

  203. ID : 14

  204. Format : UTF-8

  205. Codec ID : S_TEXT/UTF8

  206. Codec ID/Info : UTF-8 Plain Text

  207. Duration : 2 h 35 min

  208. Bit rate : 41 b/s

  209. Count of elements : 1644

  210. Stream size : 47.8 KiB (0%)

  211. Language : Icelandic

  212. Default : No

  213. Forced : No

  214. Text #13

  215. ID : 15

  216. Format : UTF-8

  217. Codec ID : S_TEXT/UTF8

  218. Codec ID/Info : UTF-8 Plain Text

  219. Duration : 2 h 35 min

  220. Bit rate : 41 b/s

  221. Count of elements : 1645

  222. Stream size : 47.7 KiB (0%)

  223. Language : Italian

  224. Default : No

  225. Forced : No

  226. Text #14

  227. ID : 16

  228. Format : UTF-8

  229. Codec ID : S_TEXT/UTF8

  230. Codec ID/Info : UTF-8 Plain Text

  231. Duration : 2 h 35 min

  232. Bit rate : 36 b/s

  233. Count of elements : 1495

  234. Stream size : 41.5 KiB (0%)

  235. Language : Japanese

  236. Default : No

  237. Forced : No

  238. Text #15

  239. ID : 17

  240. Format : UTF-8

  241. Codec ID : S_TEXT/UTF8

  242. Codec ID/Info : UTF-8 Plain Text

  243. Duration : 2 h 35 min

  244. Bit rate : 43 b/s

  245. Count of elements : 1656

  246. Stream size : 49.6 KiB (0%)

  247. Language : Korean

  248. Default : No

  249. Forced : No

  250. Text #16

  251. ID : 18

  252. Format : UTF-8

  253. Codec ID : S_TEXT/UTF8

  254. Codec ID/Info : UTF-8 Plain Text

  255. Duration : 2 h 35 min

  256. Bit rate : 38 b/s

  257. Count of elements : 1653

  258. Stream size : 43.7 KiB (0%)

  259. Language : Norwegian Bokmal

  260. Default : No

  261. Forced : No

  262. Text #17

  263. ID : 19

  264. Format : UTF-8

  265. Codec ID : S_TEXT/UTF8

  266. Codec ID/Info : UTF-8 Plain Text

  267. Duration : 2 h 35 min

  268. Bit rate : 39 b/s

  269. Count of elements : 1400

  270. Stream size : 44.9 KiB (0%)

  271. Language : Dutch

  272. Default : No

  273. Forced : No

  274. Text #18

  275. ID : 20

  276. Format : UTF-8

  277. Codec ID : S_TEXT/UTF8

  278. Codec ID/Info : UTF-8 Plain Text

  279. Duration : 2 h 35 min

  280. Bit rate : 40 b/s

  281. Count of elements : 1716

  282. Stream size : 46.5 KiB (0%)

  283. Title : Brazil (SDH)

  284. Language : Portuguese

  285. Default : No

  286. Forced : No

  287. Text #19

  288. ID : 21

  289. Format : UTF-8

  290. Codec ID : S_TEXT/UTF8

  291. Codec ID/Info : UTF-8 Plain Text

  292. Duration : 2 h 35 min

  293. Bit rate : 40 b/s

  294. Count of elements : 1652

  295. Stream size : 46.3 KiB (0%)

  296. Title : Brazil

  297. Language : Portuguese

  298. Default : No

  299. Forced : No

  300. Text #20

  301. ID : 22

  302. Format : UTF-8

  303. Codec ID : S_TEXT/UTF8

  304. Codec ID/Info : UTF-8 Plain Text

  305. Duration : 2 h 35 min

  306. Bit rate : 40 b/s

  307. Count of elements : 1635

  308. Stream size : 46.0 KiB (0%)

  309. Language : Portuguese

  310. Default : No

  311. Forced : No

  312. Text #21

  313. ID : 23

  314. Format : UTF-8

  315. Codec ID : S_TEXT/UTF8

  316. Codec ID/Info : UTF-8 Plain Text

  317. Duration : 2 h 35 min

  318. Bit rate : 38 b/s

  319. Count of elements : 1316

  320. Stream size : 44.4 KiB (0%)

  321. Language : Swedish

  322. Default : No

  323. Forced : No

  324. Text #22

  325. ID : 24

  326. Format : UTF-8

  327. Codec ID : S_TEXT/UTF8

  328. Codec ID/Info : UTF-8 Plain Text

  329. Duration : 2 h 35 min

  330. Bit rate : 36 b/s

  331. Count of elements : 1661

  332. Stream size : 41.7 KiB (0%)

  333. Title : Simplified

  334. Language : Chinese

  335. Default : No

  336. Forced : No

  337. Text #23

  338. ID : 25

  339. Format : UTF-8

  340. Codec ID : S_TEXT/UTF8

  341. Codec ID/Info : UTF-8 Plain Text

  342. Duration : 2 h 35 min

  343. Bit rate : 34 b/s

  344. Count of elements : 1679

  345. Stream size : 39.7 KiB (0%)

  346. Title : Traditional

  347. Language : Chinese

  348. Default : No

  349. Forced : No

  350. Text #24

  351. ID : 26

  352. Format : UTF-8

  353. Codec ID : S_TEXT/UTF8

  354. Codec ID/Info : UTF-8 Plain Text

  355. Duration : 2 h 35 min

  356. Bit rate : 33 b/s

  357. Count of elements : 1663

  358. Stream size : 37.8 KiB (0%)

  359. Title : Traditional, Hong Kong

  360. Language : Chinese

  361. Default : No

  362. Forced : No


复制代码


TAGS 动作 奇幻 冒险 科幻 /

磁力链:
  • magnet:?xt=urn:btih:19463FF68C39C89C985796FDE9C6CB2F039064D4
上传的附件:
BT9527电影天堂 1、BT9527电影天堂提供的BT文件均来源于互联网抓取,只供网友学习交流、技术提升使用。
2、我们遵守BitTorrent点对点协议原则,任何版权问题请联系原资源发布商,我们不处理任何版权纠纷,谢谢!如有争议请联系邮箱:BT9527#hotmail.com(#换成@)
3、如果您发现某页面或地址有错误,请联系站长邮箱BT9527#hotmail.com(#换成@),我们会尽快处理。您的热心是对BT9527电影天堂最大的支持。
4、本站建议去正规影院观看电影以支持电影行业发展。
最新回复 (0)

你可以在 登录 or 注册 后,对此帖发表评论!

返回
发新帖