摸金之诡棺伏军[国语配音/中文字幕].Mo.Jin.Zhi.Gui.Guan.Fu.Jun.2022.2160p.WEB-DL.H265.AAC-HDBWEB 2.21GB

版主小s 4月前 351

◎译 名 摸金之诡棺伏军 / 摸金

◎年 代 2022

◎产 地 中国大陆

◎类 别 剧情 / 悬疑 / 奇幻

◎语 言 汉语普通话

◎上映日期 2022-05-27(中国大陆网络)

◎IMDb链接 https://www.imdb.com/title//

◎豆瓣链接 https://movie.douban.com/subject/35908183/

◎导 演 吴鹰翔 Yingxiang Wu (id:1472252)

◎演 员 王珞嘉 Luojia Wang (id:1391235)

姜超 Chao Jiang (id:1274652)

◎简 介

平凡小镇流传千年古墓传说,墓中不仅珍宝无数,还藏有可治百病的秘药,然众多摸金人探寻都不知去处,无人归来。摸金校尉后人曹顺(王珞嘉 饰)赶鸭子上架误打误撞跌入古墓。这个墓有点东西,这么大的镇墓神兽是真的存在的吗?

  1. ##### MediaInfo ######

  2. General

  3. Complete name : 摸金校尉之诡棺伏军.Mo.Jin.Zhi.Gui.Guan.Fu.Jun.2022.2160p.WEB-DL.H265.AAC-HDBWEB.mp4

  4. Format : MPEG-4

  5. Format profile : Base Media

  6. Codec ID : isom (isom/iso2/mp41)

  7. File size : 2.21 GiB

  8. Duration : 1 h 24 min

  9. Overall bit rate : 3 751 kb/s

  10. Writing application : Lavf58.17.103

  11. Video

  12. ID : 1

  13. Format : HEVC

  14. Format/Info : High Efficiency Video Coding

  15. Format profile : Main@L5@Main

  16. Codec ID : hev1

  17. Codec ID/Info : High Efficiency Video Coding

  18. Duration : 1 h 24 min

  19. Bit rate : 3 619 kb/s

  20. Width : 3 840 pixels

  21. Height : 1 504 pixels

  22. Display aspect ratio : 2.553

  23. Frame rate mode : Variable

  24. Frame rate : 25.000 FPS

  25. Minimum frame rate : 24.993 FPS

  26. Maximum frame rate : 25.007 FPS

  27. Color space : YUV

  28. Chroma subsampling : 4:2:0

  29. Bit depth : 8 bits

  30. Bits/(Pixel*Frame) : 0.025

  31. Stream size : 2.13 GiB (96%)

  32. Color range : Limited

  33. Color primaries : BT.709

  34. Transfer characteristics : BT.709

  35. Matrix coefficients : BT.709

  36. Codec configuration box : hvcC

  37. Audio

  38. ID : 2

  39. Format : AAC LC

  40. Format/Info : Advanced Audio Codec Low Complexity

  41. Codec ID : mp4a-40-2

  42. Duration : 1 h 24 min

  43. Bit rate mode : Constant

  44. Bit rate : 125 kb/s

  45. Channel(s) : 2 channels

  46. Channel layout : L R

  47. Sampling rate : 48.0 kHz

  48. Frame rate : 46.875 FPS (1024 SPF)

  49. Compression mode : Lossy

  50. Stream size : 75.5 MiB (3%)

  51. Default : Yes

  52. Alternate group : 1


复制代码


TAGS 奇幻 剧情 悬疑 /

磁力链:
  • magnet:?xt=urn:btih:8E4DF3CADD0B3AF0F22BB8B25C45ACD425CA471D
上传的附件:
BT9527电影天堂 1、BT9527电影天堂提供的BT文件均来源于互联网抓取,只供网友学习交流、技术提升使用。
2、我们遵守BitTorrent点对点协议原则,任何版权问题请联系原资源发布商,我们不处理任何版权纠纷,谢谢!如有争议请联系邮箱:BT9527#hotmail.com(#换成@)
3、如果您发现某页面或地址有错误,请联系站长邮箱BT9527#hotmail.com(#换成@),我们会尽快处理。您的热心是对BT9527电影天堂最大的支持。
4、本站建议去正规影院观看电影以支持电影行业发展。
最新回复 (0)

你可以在 登录 or 注册 后,对此帖发表评论!

返回
发新帖