我是真的讨厌异地恋[国语配音/中文字幕].Stay.with.Me.2022.2160p.WEB-DL.H265.AAC-HDBWEB 1.80GB

版主小s 1月前 167

◎译 名 我是真的讨厌异地恋 / Stay with Me

◎年 代 2022

◎产 地 中国大陆

◎类 别 剧情 / 爱情

◎语 言 汉语普通话

◎上映日期 2022-04-29(中国大陆)

◎IMDb链接 https://www.imdb.com/title/tt18358032/

◎豆瓣评分 5.4/10 (9281人评价)

◎豆瓣链接 https://movie.douban.com/subject/35057107/

◎片 长 108分钟

◎导 演 吴洋 Yang Wu (id:1392327)

周男燊 Nanshen Zhou (id:1360858)

◎编 剧 付丹迪 Dandi Fu (id:1423217)

冯莅茗 Liming Feng (id:1465885)

周轶凡 Yifan Zhou (id:1376877)

◎演 员 任敏 Min Ren (id:1397388)

辛云来 Yunlai Xin (id:1397178)

李孝谦 Xiaoqian Li (id:1437065)

曹卫宇 Weiyu Cao (id:1337942)

张澍 Shu Zhang (id:1318907)

周雨彤 Yutong Zhou (id:1348107)

陈宥维 Youwei Chen (id:1386145)

林俊毅 Junyi Lin (id:1392565)

戚砚笛 Yandi Qi (id:1373704)

朱丹妮 Danni Zhu (id:1397106)

修雨秀 Yuxiu Xiu (id:1469217)

马哲 Ma Zhe (id:1452329)

曹晓北 Xiaobei Cao (id:1453465)

郭栋楠 (id:1465883)

赵龙龙 (id:1465884)

林安儿 Angie Lam (id:1038152)

郑辰 Chen Zheng (id:1418910)

李华 Hua Li (id:1401858)

杜笃之 Du-Che Tu (id:1275159)

◎简 介

要相信:熬过异地,就是一生。故事围绕赵一一(任敏 饰)和许嘉树(辛云来 饰)展开,高考之后,赵一一终于向暗恋多年的许嘉树表白,却阴差阳错开启一场异地恋。他们坚信:熬过异地,就是一生。可远距离恋爱的天然阻碍考验着他们,明明相爱,却不断缺席对方的生活。赛赫(陈宥维 饰)的出现以及闺蜜乔乔(周雨彤 饰)和李唐(李孝谦 饰)一波三折的爱情都让赵一一感触良多。当异地恋升级为异国恋,是继续坚持,还是一别两宽,各自成长的二人不得不面对自己内心的答案……

  1. ##### MediaInfo ######

  2. General

  3. Complete name : 我是真的讨厌异地恋.Stay.with.Me.2022.2160p.WEB-DL.H265.AAC-HDBWEB.mp4

  4. Format : MPEG-4

  5. Format profile : Base Media

  6. Codec ID : isom (isom/iso2/mp41)

  7. File size : 1.80 GiB

  8. Duration : 1 h 47 min

  9. Overall bit rate mode : Variable

  10. Overall bit rate : 2 382 kb/s

  11. Writing application : Lavf58.17.103

  12. Video

  13. ID : 1

  14. Format : HEVC

  15. Format/Info : High Efficiency Video Coding

  16. Format profile : Main@L5@Main

  17. Codec ID : hev1

  18. Codec ID/Info : High Efficiency Video Coding

  19. Duration : 1 h 47 min

  20. Bit rate : 2 250 kb/s

  21. Width : 3 840 pixels

  22. Height : 1 610 pixels

  23. Display aspect ratio : 2.40:1

  24. Frame rate mode : Variable

  25. Frame rate : 24.000 FPS

  26. Minimum frame rate : 23.994 FPS

  27. Maximum frame rate : 24.006 FPS

  28. Color space : YUV

  29. Chroma subsampling : 4:2:0

  30. Bit depth : 8 bits

  31. Bits/(Pixel*Frame) : 0.015

  32. Stream size : 1.70 GiB (94%)

  33. Codec configuration box : hvcC

  34. Audio

  35. ID : 2

  36. Format : AAC LC

  37. Format/Info : Advanced Audio Codec Low Complexity

  38. Codec ID : mp4a-40-2

  39. Duration : 1 h 47 min

  40. Bit rate mode : Variable

  41. Bit rate : 125 kb/s

  42. Maximum bit rate : 142 kb/s

  43. Channel(s) : 2 channels

  44. Channel layout : L R

  45. Sampling rate : 48.0 kHz

  46. Frame rate : 46.875 FPS (1024 SPF)

  47. Compression mode : Lossy

  48. Stream size : 96.8 MiB (5%)

  49. Default : Yes

  50. Alternate group : 1


复制代码


TAGS 剧情 爱情 /

磁力链:
  • magnet:?xt=urn:btih:242D3653DBD335E5CAA523578D2902687015B3A4
上传的附件:
BT9527电影天堂 1、BT9527电影天堂提供的BT文件均来源于互联网抓取,只供网友学习交流、技术提升使用。
2、我们遵守BitTorrent点对点协议原则,任何版权问题请联系原资源发布商,我们不处理任何版权纠纷,谢谢!如有争议请联系邮箱:BT9527#hotmail.com(#换成@)
3、如果您发现某页面或地址有错误,请联系站长邮箱BT9527#hotmail.com(#换成@),我们会尽快处理。您的热心是对BT9527电影天堂最大的支持。
4、本站建议去正规影院观看电影以支持电影行业发展。
最新回复 (0)

你可以在 登录 or 注册 后,对此帖发表评论!

返回
发新帖