惊奇队长[IMAX满屏版][简繁英字幕].Captain.Marvel.2019.IMAX.2160p.HDR.DSNP.WEB-DL.H.265.DDP5.1.Atmos-HDBWEB 14.71GB

版主小s 4月前 282

◎译 名 惊奇队长 / Marvel队长(港) / 漫威队长 / 惊奇女士

◎片 名 Captain Marvel

◎年 代 2019

◎产 地 美国 / 澳大利亚

◎类 别 动作 / 科幻 / 冒险

◎语 言 英语

◎上映日期 2019-03-08(美国/中国大陆)

◎IMDb链接 https://www.imdb.com/title/tt4154664/

◎豆瓣评分 6.8/10 (476353人评价)

◎豆瓣链接 https://movie.douban.com/subject/26213252/

◎片 长 124分钟

◎导 演 安娜·波顿 Anna Boden (id:1306067)

瑞安·弗雷克 Ryan Fleck (id:1050201)

◎编 剧 安娜·波顿 Anna Boden (id:1306067)

瑞安·弗雷克 Ryan Fleck (id:1050201)

吉内瓦·德沃莱特-罗宾森 Geneva Robertson-Dworet (id:1364027)

尼科尔·帕尔曼 Nicole Perlman (id:1332275)

梅格·勒福夫 Meg LeFauve (id:1289713)

吉因·科兰 Gene Colan (id:1052260)

罗伊·托马斯 Roy Thomas (id:1042277)

◎演 员 布丽·拉尔森 Brie Larson (id:1027194)

裘德·洛 Jude Law (id:1010510)

塞缪尔·杰克逊 Samuel L. Jackson (id:1054408)

本·门德尔森 Ben Mendelsohn (id:1000248)

安妮特·贝宁 Annette Bening (id:1017944)

麦肯娜·格瑞丝 Mckenna Grace (id:1340538)

克拉克·格雷格 Clark Gregg (id:1000083)

嘉玛·陈 Gemma Chan (id:1036516)

李·佩斯 Lee Pace (id:1018975)

杰曼·翰苏 Djimon Hounsou (id:1044880)

拉什纳·林奇 Lashana Lynch (id:1412327)

阿基拉·阿克巴 Akira Akbar (id:1412328)

科林·福特 Colin Ford (id:1049793)

卓库·莫度 Chuku Modu (id:1374019)

肯内特·米歇尔 Kenneth Mitchell (id:1214776)

罗伯特·卡辛斯基 Robert Kazinsky (id:1041498)

詹姆斯·莫里森 James Morrison (id:1131727)

皮特·普劳泽克 Pete Ploszek (id:1340774)

马修·马希尔 Matthew Maher (id:1344334)

安东尼·莫利纳利 Anthony Molinari (id:1045545)

马修·弗林·贝罗斯 Matthew Flynn Bellows (id:1235720)

加斯顿·达尔莫 Gastón Dalmau (id:1200209)

亚当·哈特 Adam Hart (id:1311097)

马克·多尔蒂 Mark Daugherty (id:1268640)

雷尼尔·鲁菲诺 Rayniel Rufino (id:1251583)

约翰·盖蒂尔 John Gettier (id:1392772)

斯坦·李 Stan Lee (id:1013888)

克里斯·埃文斯 Chris Evans (id:1017885)

斯嘉丽·约翰逊 Scarlett Johansson (id:1054453)

马克·鲁弗洛 Mark Ruffalo (id:1040505)

唐·钱德尔 Don Cheadle (id:1053573)

克莱顿·基蒂 Clayton Chitty (id:1327021)

伦敦·富勒 London Fuller (id:1412751)

里索 Rizzo (id:1412755)

阿奇 Archie (id:1412754)

阿尔赫尼斯·佩雷斯·索托 Algenis Perez Soto (id:1412750)

鲁内·泰特 Rune Temte (id:1412749)

雷吉 Reggie (id:1412752)

贡佐 Gonzo (id:1412753)

阿比盖尔·奥兹里 Abigaille Ozrey (id:1418340)

凯文·费奇 Kevin Feige (id:1340830)

蒂姆·琼斯 Tim Jones (id:1458140)

本·戴维斯 Ben Davis (id:1385007)

黛比·伯曼 Debbie Berman (id:1014919)

埃利奥特·格雷厄姆 Elliot Graham (id:1301892)

萨拉·芬兰 Sarah Finn (id:1283741)

安迪·尼克尔森 Andy Nicholson (id:1293160)

劳里·加芬 Lauri Gaffin (id:1284378)

Kasra Farahani (id:1459636)

萨尼娅·米尔科维奇·海斯 Sanja Milkovic Hays (id:1051411)

丹尼尔·萨迪克 Daniel Sudick (id:1298615)

迈克尔·狄龙 Michael Dillon (id:1230257)

加斯顿·达尔莫 Gastón Dalmau (id:1200209)

特伦特·牛顿 Trent Newton (id:1411060)

卡洛斯·华达德 Carlos Ciudad (id:1414095)

拉斐尔·皮门特尔 Raphael A. Pimentel (id:1419122)

米格尔·A·萨莱克 Miguel A. Salek (id:1414108)

托马斯·尼特曼 Thomas Nittmann (id:1414106)

莎伦·达斯 Sharon Das (id:1419117)

英格丽德·克莱尼格 ingrid kleinig (id:1406942)

艾尔·尤因 Al Ewing (id:1453614)

Dexter Soy Dexter Soy (id:1455300)

◎简 介

在围剿斯克鲁人的战斗中,克里人星际战队成员弗斯(布丽·拉尔森 Brie Larson 饰)不幸成为对方的俘虏。斯克鲁人尝试探究弗斯的记忆,最终发现连弗斯本人都不知道的一段往事,进而也得知名为温迪?劳森博士的女子掌握着他们急于得到的时空引擎。趁对方不备,拥有强大超能力的弗斯摆脱束缚,逃到了代号为C-53的地球,而这里也正是她那段失落的记忆的发生地。未过多久,神盾局探员弗瑞特工(塞缪尔·杰克逊 Samuel L. Jackson 饰)找上门来,而紧随其后的斯克鲁人更是引发了地球人前所未见的大骚动。

在这一过程中,弗瑞特工意识到事态的严重性,并且帮助弗斯认清本来的自己。倔强的弗斯,终于找到了真正需要保护的东西……

◎获奖情况 (共6项)

第28届MTV电影奖 (2019)

MTV电影奖 最佳打斗

MTV电影奖 最佳英雄形象(提名)

└──布丽·拉尔森 (id:1027194)

第22届美国服装设计工会奖 (2020)

科幻/奇幻题材电影最佳服装设计(提名)

└──萨尼娅·米尔科维奇·海斯 (id:1051411)

第7届美国化妆及发型设计工会奖 (2020)

电影类最佳特效化妆(提名)

第18届美国视觉效果协会奖 (2020)

最佳电影视觉效果合成(提名)

第5届豆瓣电影年度榜单 (2018)

最值得期待的外语电影(提名)

  1. ##### MediaInfo ######

  2. General

  3. Unique ID : 309887464005830333085574675879511564899 (0xE9222795F4DF0CD8A6A4EEDE9B99A263)

  4. Complete name : Captain.Marvel.2019.IMAX.2160p.HDR.DSNP.WEB-DL.H.265.DDP5.1.Atmos-HDBWEB.mkv

  5. Format : Matroska

  6. Format version : Version 4

  7. File size : 14.7 GiB

  8. Duration : 2 h 3 min

  9. Overall bit rate : 17.0 Mb/s

  10. Encoded date : UTC 2022-05-26 06:18:31

  11. Writing application : mkvmerge v67.0.0 ('Under Stars') 64-bit

  12. Writing library : libebml v1.4.2 + libmatroska v1.6.4

  13. Video

  14. ID : 1

  15. Format : HEVC

  16. Format/Info : High Efficiency Video Coding

  17. Format profile : Main 10@L5@High

  18. HDR format : SMPTE ST 2086, HDR10 compatible

  19. Codec ID : V_MPEGH/ISO/HEVC

  20. Duration : 2 h 3 min

  21. Bit rate : 16.3 Mb/s

  22. Width : 3 840 pixels

  23. Height : 2 160 pixels

  24. Display aspect ratio : 16:9

  25. Frame rate mode : Constant

  26. Frame rate : 23.976 (24000/1001/53354) FPS

  27. Color space : YUV

  28. Chroma subsampling : 4:2:0

  29. Bit depth : 10 bits

  30. Bits/(Pixel*Frame) : 0.082

  31. Stream size : 14.0 GiB (95%)

  32. Language : English

  33. Default : Yes

  34. Forced : No

  35. Color range : Limited

  36. Color primaries : BT.2020

  37. Transfer characteristics : PQ

  38. Matrix coefficients : BT.2020 non-constant

  39. Mastering display color primaries : Display P3

  40. Mastering display luminance : min: 0.0050 cd/m2, max: 4000 cd/m2

  41. Audio

  42. ID : 2

  43. Format : E-AC-3 JOC

  44. Format/Info : Enhanced AC-3 with Joint Object Coding

  45. Commercial name : Dolby Digital Plus with Dolby Atmos

  46. Codec ID : A_EAC3

  47. Duration : 2 h 3 min

  48. Bit rate mode : Constant

  49. Bit rate : 768 kb/s

  50. Channel(s) : 6 channels

  51. Channel layout : L R C LFE Ls Rs

  52. Sampling rate : 48.0 kHz

  53. Frame rate : 31.250 FPS (1536 SPF)

  54. Compression mode : Lossy

  55. Stream size : 679 MiB (5%)

  56. Language : English

  57. Service kind : Complete Main

  58. Default : Yes

  59. Forced : No

  60. Complexity index : 16

  61. Number of dynamic objects : 15

  62. Bed channel count : 1 channel

  63. Bed channel configuration : LFE

  64. Text #1

  65. ID : 3

  66. Format : UTF-8

  67. Codec ID : S_TEXT/UTF8

  68. Codec ID/Info : UTF-8 Plain Text

  69. Duration : 2 h 2 min

  70. Bit rate : 49 b/s

  71. Count of elements : 1665

  72. Stream size : 44.0 KiB (0%)

  73. Title : SDH

  74. Language : English

  75. Default : No

  76. Forced : No

  77. Text #2

  78. ID : 4

  79. Format : UTF-8

  80. Codec ID : S_TEXT/UTF8

  81. Codec ID/Info : UTF-8 Plain Text

  82. Duration : 2 h 2 min

  83. Bit rate : 40 b/s

  84. Count of elements : 929

  85. Stream size : 35.9 KiB (0%)

  86. Language : Danish

  87. Default : No

  88. Forced : No

  89. Text #3

  90. ID : 5

  91. Format : UTF-8

  92. Codec ID : S_TEXT/UTF8

  93. Codec ID/Info : UTF-8 Plain Text

  94. Duration : 2 h 2 min

  95. Bit rate : 39 b/s

  96. Count of elements : 1300

  97. Stream size : 35.2 KiB (0%)

  98. Language : German

  99. Default : No

  100. Forced : No

  101. Text #4

  102. ID : 6

  103. Format : UTF-8

  104. Codec ID : S_TEXT/UTF8

  105. Codec ID/Info : UTF-8 Plain Text

  106. Duration : 2 h 2 min

  107. Bit rate : 48 b/s

  108. Count of elements : 1553

  109. Stream size : 43.9 KiB (0%)

  110. Title : Latin America (SDH)

  111. Language : Spanish

  112. Default : No

  113. Forced : No

  114. Text #5

  115. ID : 7

  116. Format : UTF-8

  117. Codec ID : S_TEXT/UTF8

  118. Codec ID/Info : UTF-8 Plain Text

  119. Duration : 2 h 2 min

  120. Bit rate : 44 b/s

  121. Count of elements : 1307

  122. Stream size : 39.9 KiB (0%)

  123. Title : Latin America

  124. Language : Spanish

  125. Default : No

  126. Forced : No

  127. Text #6

  128. ID : 8

  129. Format : UTF-8

  130. Codec ID : S_TEXT/UTF8

  131. Codec ID/Info : UTF-8 Plain Text

  132. Duration : 2 h 2 min

  133. Bit rate : 41 b/s

  134. Count of elements : 1287

  135. Stream size : 37.2 KiB (0%)

  136. Language : Spanish

  137. Default : No

  138. Forced : No

  139. Text #7

  140. ID : 9

  141. Format : UTF-8

  142. Codec ID : S_TEXT/UTF8

  143. Codec ID/Info : UTF-8 Plain Text

  144. Duration : 2 h 2 min

  145. Bit rate : 42 b/s

  146. Count of elements : 1299

  147. Stream size : 38.4 KiB (0%)

  148. Language : Finnish

  149. Default : No

  150. Forced : No

  151. Text #8

  152. ID : 10

  153. Format : UTF-8

  154. Codec ID : S_TEXT/UTF8

  155. Codec ID/Info : UTF-8 Plain Text

  156. Duration : 2 h 2 min

  157. Bit rate : 58 b/s

  158. Count of elements : 1761

  159. Stream size : 52.7 KiB (0%)

  160. Title : Canada (SDH)

  161. Language : French

  162. Default : No

  163. Forced : No

  164. Text #9

  165. ID : 11

  166. Format : UTF-8

  167. Codec ID : S_TEXT/UTF8

  168. Codec ID/Info : UTF-8 Plain Text

  169. Duration : 2 h 3 min

  170. Bit rate : 48 b/s

  171. Count of elements : 1561

  172. Stream size : 44.2 KiB (0%)

  173. Title : SDH

  174. Language : French

  175. Default : No

  176. Forced : No

  177. Text #10

  178. ID : 12

  179. Format : UTF-8

  180. Codec ID : S_TEXT/UTF8

  181. Codec ID/Info : UTF-8 Plain Text

  182. Duration : 2 h 2 min

  183. Bit rate : 46 b/s

  184. Count of elements : 1302

  185. Stream size : 41.9 KiB (0%)

  186. Language : Icelandic

  187. Default : No

  188. Forced : No

  189. Text #11

  190. ID : 13

  191. Format : UTF-8

  192. Codec ID : S_TEXT/UTF8

  193. Codec ID/Info : UTF-8 Plain Text

  194. Duration : 2 h 2 min

  195. Bit rate : 45 b/s

  196. Count of elements : 1297

  197. Stream size : 41.1 KiB (0%)

  198. Language : Italian

  199. Default : No

  200. Forced : No

  201. Text #12

  202. ID : 14

  203. Format : UTF-8

  204. Codec ID : S_TEXT/UTF8

  205. Codec ID/Info : UTF-8 Plain Text

  206. Duration : 2 h 1 min

  207. Bit rate : 36 b/s

  208. Count of elements : 1164

  209. Stream size : 32.4 KiB (0%)

  210. Language : Japanese

  211. Default : No

  212. Forced : No

  213. Text #13

  214. ID : 15

  215. Format : UTF-8

  216. Codec ID : S_TEXT/UTF8

  217. Codec ID/Info : UTF-8 Plain Text

  218. Duration : 2 h 2 min

  219. Bit rate : 43 b/s

  220. Count of elements : 1312

  221. Stream size : 39.3 KiB (0%)

  222. Language : Korean

  223. Default : No

  224. Forced : No

  225. Text #14

  226. ID : 16

  227. Format : UTF-8

  228. Codec ID : S_TEXT/UTF8

  229. Codec ID/Info : UTF-8 Plain Text

  230. Duration : 2 h 2 min

  231. Bit rate : 40 b/s

  232. Count of elements : 1300

  233. Stream size : 36.3 KiB (0%)

  234. Language : Norwegian Bokmal

  235. Default : No

  236. Forced : No

  237. Text #15

  238. ID : 17

  239. Format : UTF-8

  240. Codec ID : S_TEXT/UTF8

  241. Codec ID/Info : UTF-8 Plain Text

  242. Duration : 2 h 2 min

  243. Bit rate : 41 b/s

  244. Count of elements : 1007

  245. Stream size : 37.1 KiB (0%)

  246. Language : Dutch

  247. Default : No

  248. Forced : No

  249. Text #16

  250. ID : 18

  251. Format : UTF-8

  252. Codec ID : S_TEXT/UTF8

  253. Codec ID/Info : UTF-8 Plain Text

  254. Duration : 2 h 2 min

  255. Bit rate : 38 b/s

  256. Count of elements : 1273

  257. Stream size : 34.9 KiB (0%)

  258. Language : Polish

  259. Default : No

  260. Forced : No

  261. Text #17

  262. ID : 19

  263. Format : UTF-8

  264. Codec ID : S_TEXT/UTF8

  265. Codec ID/Info : UTF-8 Plain Text

  266. Duration : 2 h 3 min

  267. Bit rate : 56 b/s

  268. Count of elements : 2604

  269. Stream size : 51.0 KiB (0%)

  270. Title : Brazil (SDH)

  271. Language : Portuguese

  272. Default : No

  273. Forced : No

  274. Text #18

  275. ID : 20

  276. Format : UTF-8

  277. Codec ID : S_TEXT/UTF8

  278. Codec ID/Info : UTF-8 Plain Text

  279. Duration : 2 h 2 min

  280. Bit rate : 43 b/s

  281. Count of elements : 1301

  282. Stream size : 38.9 KiB (0%)

  283. Title : Brazil

  284. Language : Portuguese

  285. Default : No

  286. Forced : No

  287. Text #19

  288. ID : 21

  289. Format : UTF-8

  290. Codec ID : S_TEXT/UTF8

  291. Codec ID/Info : UTF-8 Plain Text

  292. Duration : 2 h 2 min

  293. Bit rate : 44 b/s

  294. Count of elements : 1246

  295. Stream size : 40.0 KiB (0%)

  296. Language : Portuguese

  297. Default : No

  298. Forced : No

  299. Text #20

  300. ID : 22

  301. Format : UTF-8

  302. Codec ID : S_TEXT/UTF8

  303. Codec ID/Info : UTF-8 Plain Text

  304. Duration : 2 h 2 min

  305. Bit rate : 39 b/s

  306. Count of elements : 880

  307. Stream size : 35.5 KiB (0%)

  308. Language : Swedish

  309. Default : No

  310. Forced : No

  311. Text #21

  312. ID : 23

  313. Format : UTF-8

  314. Codec ID : S_TEXT/UTF8

  315. Codec ID/Info : UTF-8 Plain Text

  316. Duration : 1 h 56 min

  317. Bit rate : 44 b/s

  318. Count of elements : 1339

  319. Stream size : 38.1 KiB (0%)

  320. Title : Simplified

  321. Language : Chinese

  322. Default : No

  323. Forced : No

  324. Text #22

  325. ID : 24

  326. Format : UTF-8

  327. Codec ID : S_TEXT/UTF8

  328. Codec ID/Info : UTF-8 Plain Text

  329. Duration : 2 h 2 min

  330. Bit rate : 36 b/s

  331. Count of elements : 1321

  332. Stream size : 32.9 KiB (0%)

  333. Title : Traditional

  334. Language : Chinese

  335. Default : No

  336. Forced : No

  337. Text #23

  338. ID : 25

  339. Format : UTF-8

  340. Codec ID : S_TEXT/UTF8

  341. Codec ID/Info : UTF-8 Plain Text

  342. Duration : 2 h 2 min

  343. Bit rate : 31 b/s

  344. Count of elements : 1319

  345. Stream size : 28.5 KiB (0%)

  346. Title : Traditional, Hong Kong

  347. Language : Chinese

  348. Default : No

  349. Forced : No

  350. Menu

  351. 01:54:55.000 : en:Credits


复制代码


TAGS 动作 冒险 科幻 /

磁力链:
  • magnet:?xt=urn:btih:F865B36B67312A771974DF353F405C061862E098
上传的附件:
BT9527电影天堂 1、BT9527电影天堂提供的BT文件均来源于互联网抓取,只供网友学习交流、技术提升使用。
2、我们遵守BitTorrent点对点协议原则,任何版权问题请联系原资源发布商,我们不处理任何版权纠纷,谢谢!如有争议请联系邮箱:BT9527#hotmail.com(#换成@)
3、如果您发现某页面或地址有错误,请联系站长邮箱BT9527#hotmail.com(#换成@),我们会尽快处理。您的热心是对BT9527电影天堂最大的支持。
4、本站建议去正规影院观看电影以支持电影行业发展。
最新回复 (0)

你可以在 登录 or 注册 后,对此帖发表评论!

返回
发新帖