尚气与十环传奇[IMAX满屏版][简繁英字幕].2021.IMAX.2160p.HDR.DSNP.WEB-DL.H.265.DDP5.1.Atmos-HDBWEB 16.03GB

版主小s 1月前 118

尚气与十环传奇[IMAX满屏版][简繁英字幕].Shang-Chi.and.The.Legend.of.The.Ten.Rings.2021.IMAX.2160p.HDR.DSNP.WEB-DL.H.265.DDP5.1.Atmos-HDBWEB 16.03GB

◎译 名 尚气与十环传奇 / 尚气与十戒传奇 / 尚气与十环帮传奇(港) / 尚气 / 上气 / 商奇 / 尚气与十指环传奇 / 上气与十戒传奇 / 上气:十戒传奇 / 上气与十诫传说

◎片 名 Shang-Chi and the Legend of the Ten Rings

◎年 代 2021

◎产 地 美国 / 澳大利亚

◎类 别 动作 / 奇幻 / 冒险

◎语 言 英语 / 汉语普通话

◎上映日期 2021-09-03(美国) / 2021-11-12(美国网络)

◎IMDb链接 https://www.imdb.com/title/tt9376612/

◎豆瓣评分 6.1/10 (191227人评价)

◎豆瓣链接 https://movie.douban.com/subject/30394797/

◎片 长 132分钟

◎导 演 德斯汀·克里顿 Destin Cretton (id:1310608)

◎编 剧 戴夫·卡拉汉姆 Dave Callaham (id:1040838)

德斯汀·克里顿 Destin Cretton (id:1310608)

安德鲁·兰纳姆 Andrew Lanham (id:1369951)

史蒂夫·恩格尔哈特 Steve Englehart (id:1047311)

吉姆·斯特林 Jim Starlin (id:1360715)

◎演 员 刘思慕 Simu Liu (id:1369905)

梁朝伟 Tony Leung Chiu Wai (id:1115918)

奥卡菲娜 Awkwafina (id:1360857)

张梦儿 Meng'er Zhang (id:1448400)

陈法拉 Fala Chen (id:1033379)

杨紫琼 Michelle Yeoh (id:1022664)

元华 Wah Yuen (id:1050240)

本尼迪克特·王 Benedict Wong (id:1301179)

弗罗里安·穆特鲁 Florian Munteanu (id:1403708)

安迪·黎 Andy Le (id:1456768)

本·金斯利 Ben Kingsley (id:1054393)

许玮伦 Stephanie Hsu (id:1356993)

库纳尔·杜德赫克 Kunal Dudheker (id:1427483)

周采芹 Tsai Chin (id:1036870)

乔迪·朗 Jodi Long (id:1121121)

达拉斯·刘 Dallas Liu (id:1461046)

钱信伊 Ronny Chieng (id:1392949)

费尔南多·钱 Fernando Chien (id:1339501)

扎克·切利 Zach Cherry (id:1390628)

刘家勇 Kar-Yung Lau (id:1326224)

赫小哈 Harmonie He (id:1429406)

琳内特·柯伦 Lynette Curran (id:1281625)

迪·布拉雷·贝克尔 Dee Bradley Baker (id:1059406)

布丽·拉尔森 Brie Larson (id:1027194)

马克·鲁弗洛 Mark Ruffalo (id:1040505)

蒂姆·罗斯 Tim Roth (id:1025176)

亚历山大·陈 Alexandre Chen (id:1069959)

凯文·费奇 Kevin Feige (id:1340830)

查尔斯·纽沃斯 Charles Newirth (id:1293093)

比尔·波普 Bill Pope (id:1018460)

乌尔里希·蔡德勒 Ulrich Zeidler (id:1163351)

苏·钱恩 Sue Chan (id:1468127)

凯姆·巴雷特 Kym Barrett (id:1277971)

克里斯托弗·汤森 Christopher Townsend (id:1337967)

布莱恩·勒 Brian Le (id:1456759)

布拉德利·詹姆斯·艾伦 Bradley James Allan (id:1056473)

◎简 介

故事发生在《复仇者联盟4:终局之战》事件之后,尚气(刘思慕 饰)自幼接受父亲(梁朝伟 饰)的铁血战斗培训,精通各种武术招式。长大后为了逃离家乡,他改名换姓展开新生活,认识了新挚友凯蒂(奥卡菲娜 饰),平静日子就这样过了十年,直到过去再度找上门……

◎获奖情况 (共4项)

第94届奥斯卡金像奖 (2022)

最佳视觉效果(提名)

第28届美国演员工会奖 (2022)

电影最佳特技群戏(提名)

第24届美国服装设计工会奖 (2022)

科幻/奇幻题材电影最佳服装设计(提名)

└──凯姆·巴雷特 (id:1277971)

第27届美国评论家选择电影奖 (2022)

最佳视觉效果(提名)

  1. ##### MediaInfo ######

  2. General

  3. Unique ID : 166192380789648099248257941004022874579 (0x7D077CFF357B24D89CF41E56CE8A81D3)

  4. Complete name : Shang-Chi.and.The.Legend.of.The.Ten.Rings.2021.IMAX.2160p.HDR.DSNP.WEB-DL.H.265.DDP5.1.Atmos-HDBWEB.mkv

  5. Format : Matroska

  6. Format version : Version 4

  7. File size : 16.0 GiB

  8. Duration : 2 h 12 min

  9. Overall bit rate : 17.3 Mb/s

  10. Encoded date : UTC 2022-05-23 15:59:43

  11. Writing application : mkvmerge v67.0.0 ('Under Stars') 64-bit

  12. Writing library : libebml v1.4.2 + libmatroska v1.6.4

  13. Video

  14. ID : 1

  15. Format : HEVC

  16. Format/Info : High Efficiency Video Coding

  17. Format profile : Main 10@L5@High

  18. HDR format : SMPTE ST 2086, HDR10 compatible

  19. Codec ID : V_MPEGH/ISO/HEVC

  20. Duration : 2 h 12 min

  21. Bit rate : 16.6 Mb/s

  22. Width : 3 840 pixels

  23. Height : 2 160 pixels

  24. Display aspect ratio : 16:9

  25. Frame rate mode : Constant

  26. Frame rate : 23.976 (24000/1001/53354) FPS

  27. Color space : YUV

  28. Chroma subsampling : 4:2:0

  29. Bit depth : 10 bits

  30. Bits/(Pixel*Frame) : 0.083

  31. Stream size : 15.3 GiB (96%)

  32. Language : English

  33. Default : Yes

  34. Forced : No

  35. Color range : Limited

  36. Color primaries : BT.2020

  37. Transfer characteristics : PQ

  38. Matrix coefficients : BT.2020 non-constant

  39. Mastering display color primaries : Display P3

  40. Mastering display luminance : min: 0.0000 cd/m2, max: 1000 cd/m2

  41. Audio

  42. ID : 2

  43. Format : E-AC-3 JOC

  44. Format/Info : Enhanced AC-3 with Joint Object Coding

  45. Commercial name : Dolby Digital Plus with Dolby Atmos

  46. Codec ID : A_EAC3

  47. Duration : 2 h 12 min

  48. Bit rate mode : Constant

  49. Bit rate : 768 kb/s

  50. Channel(s) : 6 channels

  51. Channel layout : L R C LFE Ls Rs

  52. Sampling rate : 48.0 kHz

  53. Frame rate : 31.250 FPS (1536 SPF)

  54. Compression mode : Lossy

  55. Stream size : 727 MiB (4%)

  56. Language : English

  57. Service kind : Complete Main

  58. Default : Yes

  59. Forced : No

  60. Complexity index : 16

  61. Number of dynamic objects : 15

  62. Bed channel count : 1 channel

  63. Bed channel configuration : LFE

  64. Text #1

  65. ID : 3

  66. Format : UTF-8

  67. Codec ID : S_TEXT/UTF8

  68. Codec ID/Info : UTF-8 Plain Text

  69. Duration : 1 h 55 min

  70. Bit rate : 5 b/s

  71. Count of elements : 188

  72. Stream size : 4.98 KiB (0%)

  73. Title : Forced

  74. Language : English

  75. Default : Yes

  76. Forced : Yes

  77. Text #2

  78. ID : 4

  79. Format : UTF-8

  80. Codec ID : S_TEXT/UTF8

  81. Codec ID/Info : UTF-8 Plain Text

  82. Duration : 2 h 11 min

  83. Bit rate : 49 b/s

  84. Count of elements : 1821

  85. Stream size : 47.5 KiB (0%)

  86. Title : SDH

  87. Language : English

  88. Default : No

  89. Forced : No

  90. Text #3

  91. ID : 5

  92. Format : UTF-8

  93. Codec ID : S_TEXT/UTF8

  94. Codec ID/Info : UTF-8 Plain Text

  95. Duration : 2 h 11 min

  96. Bit rate : 31 b/s

  97. Count of elements : 798

  98. Stream size : 30.8 KiB (0%)

  99. Language : Danish

  100. Default : No

  101. Forced : No

  102. Text #4

  103. ID : 6

  104. Format : UTF-8

  105. Codec ID : S_TEXT/UTF8

  106. Codec ID/Info : UTF-8 Plain Text

  107. Duration : 2 h 11 min

  108. Bit rate : 33 b/s

  109. Count of elements : 1080

  110. Stream size : 32.3 KiB (0%)

  111. Language : German

  112. Default : No

  113. Forced : No

  114. Text #5

  115. ID : 7

  116. Format : UTF-8

  117. Codec ID : S_TEXT/UTF8

  118. Codec ID/Info : UTF-8 Plain Text

  119. Duration : 2 h 11 min

  120. Bit rate : 36 b/s

  121. Count of elements : 1127

  122. Stream size : 35.4 KiB (0%)

  123. Title : Latin America

  124. Language : Spanish

  125. Default : No

  126. Forced : No

  127. Text #6

  128. ID : 8

  129. Format : UTF-8

  130. Codec ID : S_TEXT/UTF8

  131. Codec ID/Info : UTF-8 Plain Text

  132. Duration : 2 h 11 min

  133. Bit rate : 33 b/s

  134. Count of elements : 1122

  135. Stream size : 32.2 KiB (0%)

  136. Language : Spanish

  137. Default : No

  138. Forced : No

  139. Text #7

  140. ID : 9

  141. Format : UTF-8

  142. Codec ID : S_TEXT/UTF8

  143. Codec ID/Info : UTF-8 Plain Text

  144. Duration : 2 h 11 min

  145. Bit rate : 36 b/s

  146. Count of elements : 1126

  147. Stream size : 34.9 KiB (0%)

  148. Language : Finnish

  149. Default : No

  150. Forced : No

  151. Text #8

  152. ID : 10

  153. Format : UTF-8

  154. Codec ID : S_TEXT/UTF8

  155. Codec ID/Info : UTF-8 Plain Text

  156. Duration : 2 h 11 min

  157. Bit rate : 37 b/s

  158. Count of elements : 1142

  159. Stream size : 36.5 KiB (0%)

  160. Title : Canada

  161. Language : French

  162. Default : No

  163. Forced : No

  164. Text #9

  165. ID : 11

  166. Format : UTF-8

  167. Codec ID : S_TEXT/UTF8

  168. Codec ID/Info : UTF-8 Plain Text

  169. Duration : 2 h 11 min

  170. Bit rate : 31 b/s

  171. Count of elements : 1082

  172. Stream size : 30.4 KiB (0%)

  173. Language : French

  174. Default : No

  175. Forced : No

  176. Text #10

  177. ID : 12

  178. Format : UTF-8

  179. Codec ID : S_TEXT/UTF8

  180. Codec ID/Info : UTF-8 Plain Text

  181. Duration : 2 h 11 min

  182. Bit rate : 36 b/s

  183. Count of elements : 1124

  184. Stream size : 35.6 KiB (0%)

  185. Language : Icelandic

  186. Default : No

  187. Forced : No

  188. Text #11

  189. ID : 13

  190. Format : UTF-8

  191. Codec ID : S_TEXT/UTF8

  192. Codec ID/Info : UTF-8 Plain Text

  193. Duration : 2 h 11 min

  194. Bit rate : 37 b/s

  195. Count of elements : 1128

  196. Stream size : 35.8 KiB (0%)

  197. Language : Italian

  198. Default : No

  199. Forced : No

  200. Text #12

  201. ID : 14

  202. Format : UTF-8

  203. Codec ID : S_TEXT/UTF8

  204. Codec ID/Info : UTF-8 Plain Text

  205. Duration : 2 h 11 min

  206. Bit rate : 31 b/s

  207. Count of elements : 1061

  208. Stream size : 29.9 KiB (0%)

  209. Language : Japanese

  210. Default : No

  211. Forced : No

  212. Text #13

  213. ID : 15

  214. Format : UTF-8

  215. Codec ID : S_TEXT/UTF8

  216. Codec ID/Info : UTF-8 Plain Text

  217. Duration : 2 h 11 min

  218. Bit rate : 36 b/s

  219. Count of elements : 1133

  220. Stream size : 34.7 KiB (0%)

  221. Language : Korean

  222. Default : No

  223. Forced : No

  224. Text #14

  225. ID : 16

  226. Format : UTF-8

  227. Codec ID : S_TEXT/UTF8

  228. Codec ID/Info : UTF-8 Plain Text

  229. Duration : 2 h 11 min

  230. Bit rate : 33 b/s

  231. Count of elements : 1133

  232. Stream size : 31.8 KiB (0%)

  233. Language : Norwegian Bokmal

  234. Default : No

  235. Forced : No

  236. Text #15

  237. ID : 17

  238. Format : UTF-8

  239. Codec ID : S_TEXT/UTF8

  240. Codec ID/Info : UTF-8 Plain Text

  241. Duration : 2 h 11 min

  242. Bit rate : 33 b/s

  243. Count of elements : 941

  244. Stream size : 32.3 KiB (0%)

  245. Language : Dutch

  246. Default : No

  247. Forced : No

  248. Text #16

  249. ID : 18

  250. Format : UTF-8

  251. Codec ID : S_TEXT/UTF8

  252. Codec ID/Info : UTF-8 Plain Text

  253. Duration : 2 h 11 min

  254. Bit rate : 31 b/s

  255. Count of elements : 1109

  256. Stream size : 30.1 KiB (0%)

  257. Language : Polish

  258. Default : No

  259. Forced : No

  260. Text #17

  261. ID : 19

  262. Format : UTF-8

  263. Codec ID : S_TEXT/UTF8

  264. Codec ID/Info : UTF-8 Plain Text

  265. Duration : 2 h 11 min

  266. Bit rate : 36 b/s

  267. Count of elements : 1127

  268. Stream size : 34.8 KiB (0%)

  269. Title : Brazil

  270. Language : Portuguese

  271. Default : No

  272. Forced : No

  273. Text #18

  274. ID : 20

  275. Format : UTF-8

  276. Codec ID : S_TEXT/UTF8

  277. Codec ID/Info : UTF-8 Plain Text

  278. Duration : 2 h 11 min

  279. Bit rate : 35 b/s

  280. Count of elements : 1112

  281. Stream size : 34.0 KiB (0%)

  282. Language : Portuguese

  283. Default : No

  284. Forced : No

  285. Text #19

  286. ID : 21

  287. Format : UTF-8

  288. Codec ID : S_TEXT/UTF8

  289. Codec ID/Info : UTF-8 Plain Text

  290. Duration : 2 h 11 min

  291. Bit rate : 30 b/s

  292. Count of elements : 854

  293. Stream size : 29.3 KiB (0%)

  294. Language : Swedish

  295. Default : No

  296. Forced : No

  297. Text #20

  298. ID : 22

  299. Format : UTF-8

  300. Codec ID : S_TEXT/UTF8

  301. Codec ID/Info : UTF-8 Plain Text

  302. Duration : 2 h 11 min

  303. Bit rate : 35 b/s

  304. Count of elements : 1135

  305. Stream size : 33.8 KiB (0%)

  306. Title : Simplified

  307. Language : Chinese

  308. Default : No

  309. Forced : No

  310. Text #21

  311. ID : 23

  312. Format : UTF-8

  313. Codec ID : S_TEXT/UTF8

  314. Codec ID/Info : UTF-8 Plain Text

  315. Duration : 2 h 11 min

  316. Bit rate : 28 b/s

  317. Count of elements : 1153

  318. Stream size : 27.4 KiB (0%)

  319. Title : Traditional

  320. Language : Chinese

  321. Default : No

  322. Forced : No

  323. Text #22

  324. ID : 24

  325. Format : UTF-8

  326. Codec ID : S_TEXT/UTF8

  327. Codec ID/Info : UTF-8 Plain Text

  328. Duration : 2 h 11 min

  329. Bit rate : 28 b/s

  330. Count of elements : 1143

  331. Stream size : 27.1 KiB (0%)

  332. Title : Traditional, Hong Kong

  333. Language : Chinese

  334. Default : No

  335. Forced : No

  336. Menu

  337. 02:12:10.639 : en:Credits


复制代码


TAGS 动作 奇幻 冒险 /

磁力链:
  • magnet:?xt=urn:btih:E28B5A4845AAC5FA3B01C24ADEF8E80792AA1EC0
上传的附件:
BT9527电影天堂 1、BT9527电影天堂提供的BT文件均来源于互联网抓取,只供网友学习交流、技术提升使用。
2、我们遵守BitTorrent点对点协议原则,任何版权问题请联系原资源发布商,我们不处理任何版权纠纷,谢谢!如有争议请联系邮箱:BT9527#hotmail.com(#换成@)
3、如果您发现某页面或地址有错误,请联系站长邮箱BT9527#hotmail.com(#换成@),我们会尽快处理。您的热心是对BT9527电影天堂最大的支持。
4、本站建议去正规影院观看电影以支持电影行业发展。
最新回复 (0)

你可以在 登录 or 注册 后,对此帖发表评论!

返回