奇异博士[IMAX满屏版][简繁英字幕].Doctor.Strange.2016.IMAX.2160p.HDR.DSNP.WEB-DL.H.265.DDP5.1.Atmos-HDBWEB 13.90GB

版主小s 1月前 148

◎译 名 奇异博士 / 斯特兰奇博士 / 史特兰奇博士 / 奇怪博士 / 怪奇医生 / 奇异医生 / 史奇医生 / Dr. Strange

◎片 名 Doctor Strange

◎年 代 2016

◎产 地 美国

◎类 别 动作 / 奇幻 / 冒险

◎语 言 英语

◎上映日期 2016-11-04(中国大陆/美国) / 2016-10-25(英国)

◎IMDb链接 https://www.imdb.com/title/tt1211837/

◎豆瓣评分 7.6/10 (543382人评价)

◎豆瓣链接 https://movie.douban.com/subject/3025375/

◎片 长 115分钟

◎导 演 斯科特·德瑞克森 Scott Derrickson (id:1320372)

◎编 剧 史蒂夫·迪特寇 Steve Ditko (id:1041593)

托马斯·迪恩·唐纳利 Thomas Dean Donnelly (id:1328309)

斯坦·李 Stan Lee (id:1013888)

乔·斯派茨 Jon Spaihts (id:1320120)

约书亚·奥本海默 Joshua Oppenheimer (id:1293605)

斯科特·德瑞克森 Scott Derrickson (id:1320372)

◎演 员 本尼迪克特·康伯巴奇 Benedict Cumberbatch (id:1009405)

蒂尔达·斯文顿 Tilda Swinton (id:1025152)

麦斯·米科尔森 Mads Mikkelsen (id:1040529)

切瓦特·埃加福 Chiwetel Ejiofor (id:1010581)

瑞秋·麦克亚当斯 Rachel McAdams (id:1053587)

迈克尔·斯图巴 Michael Stuhlbarg (id:1009409)

本尼迪克特·王 Benedict Wong (id:1301179)

本杰明·布拉特 Benjamin Bratt (id:1036383)

斯科特·阿金斯 Scott Adkins (id:1017912)

莎拉·费希恩 Zara Phythian (id:1319615)

阿拉·萨菲 Alaa Safi (id:1232518)

Bonnie C. Harper Bonnie C. Harper (id:1455490)

斯坦·李 Stan Lee (id:1013888)

李楠 Nan Li (id:1387170)

(id:1421279)

卡特莉娜德登 Katrina Durden (id:1364708)

寇布勒·霍尔德布鲁克-史密斯 Kobna Holdbrook-Smith (id:1346131)

艾米·兰德克 Amy Landecker (id:1027383)

梅拉·沙尔 Meera Syal (id:1009511)

克里斯·海姆斯沃斯 Chris Hemsworth (id:1021959)

安蒂·哈卡拉 Antti Hakala (id:1346540)

斯坦·李 Stan Lee (id:1013888)

凯文·费奇 Kevin Feige (id:1340830)

迈克·吉亚奇诺 Michael Giacchino (id:1027937)

本·戴维斯 Ben Davis (id:1385007)

Jerad Marantz Jerad Marantz (id:1454186)

亚历山德拉·伯恩 Alexandra Byrne (id:1279783)

塔伊加·维迪提 Taika Waititi (id:1076354)

詹姆斯·古恩 James Gunn (id:1092322)

斯特凡·切雷蒂 Stephane Ceretti (id:1029609)

林童 Tong Jason Lin (id:1379623)

乔丹·比兹 Jourdan Biziou (id:1404950)

洛伊·齐默曼 Loic Zimmermann (id:1404957)

迈克尔·狄龙 Michael Dillon (id:1230257)

加斯顿·达尔莫 Gastón Dalmau (id:1200209)

理查德·布拉夫 Richard Bluff (id:1306174)

伊万·雅格布斯 Evan Jacobs (id:1042616)

瑞恩·艾伦 Ryan Allen (id:1247853)

内森·里奇 Nathan Rich (id:1407651)

托马斯·尼特曼 Thomas Nittmann (id:1414106)

达里尔·索丘克 Daryl Sawchuk (id:1416842)

拉斐尔·皮门特尔 Raphael A. Pimentel (id:1419122)

文森特·西雷利 Vincent Cirelli (id:1369622)

◎简 介

斯特兰奇博士(本尼迪克特·康伯巴奇 Benedict Cumberbatch 饰)是一名外科手术医生,他拥有着高超的智商和精湛的技艺,是医院乃至整个医学界的传奇人物。某一日,斯特兰奇博士遭遇了一场可怕的车祸,尽管保住了双手,但这双手伤痕累累不住颤抖,这也就意味着,他再也不能拿起手术刀,站在无影灯下了。

斯特兰奇博士的生活就此失去了意义陷入了绝望之中,他决定远赴尼泊尔,寻找传说中能够治愈他双手的神秘力量。在尼泊尔,风尘仆仆的斯特兰奇博士拜入了神秘的古一法师(蒂尔达·斯文顿 Tilda Swinton 饰)门下,成为了其弟子,与此同时,古一法师曾经的弟子卡西利亚斯(麦斯·米科尔森 饰)亦在虎视眈眈,企图完成他获得永生的大业。

◎获奖情况 (共26项)

第89届奥斯卡金像奖 (2017)

最佳视觉效果(提名)

第70届英国电影学院奖 (2017)

电影奖 最佳化妆/发型(提名)

└──杰瑞米·伍德海德 (id:1301235)

电影奖 最佳艺术指导(提名)

电影奖 最佳特殊视觉效果(提名)

第44届动画安妮奖 (2017)

最佳真人电影动画效果

第23届美国演员工会奖 (2017)

电影最佳特技群戏(提名)

第21届美国艺术指导工会奖 (2017)

电影奖 最佳幻想电影艺术指导(提名)

第19届美国服装设计工会奖 (2017)

科幻/奇幻题材电影最佳服装设计

第15届美国视觉效果协会奖 (2017)

最佳特效电影视觉效果(提名)

最佳真人电影CG背景

最佳电影虚拟摄影(提名)

最佳真人电影模拟动画效果(提名)

最佳电影视觉效果合成(提名)

第53届美国声音效果协会奖 (2017)

真人电影最佳音效(提名)

第22届美国评论家选择电影奖 (2017)

最佳动作片(提名)

动作片最佳男主角(提名)

└──本尼迪克特·康伯巴奇 (id:1009405)

动作片最佳女主角(提名)

└──蒂尔达·斯文顿 (id:1025152)

最佳科幻/恐怖片(提名)

最佳发型化妆(提名)

最佳视觉效果(提名)

第21届金卫星奖 (2017)

电影部门 最佳视觉效果(提名)

电影部门 最佳服装设计(提名)

└──亚历山德拉·伯恩 (id:1279783)

第20届好莱坞电影奖 (2016)

年度视觉效果

第3届豆瓣电影年度榜单 (2016)

评分最高的外语电影(提名)

评分最高的科幻/动作片(提名)

11月最受关注电影

  1. ##### MediaInfo ######

  2. General

  3. Unique ID : 106886845523731461787908430049644927124 (0x5069A85B750508E4B38A62589DEC5894)

  4. Complete name : Doctor.Strange.2016.IMAX.2160p.HDR.DSNP.WEB-DL.H.265.DDP5.1.Atmos-HDBWEB.mkv

  5. Format : Matroska

  6. Format version : Version 4

  7. File size : 13.9 GiB

  8. Duration : 1 h 54 min

  9. Overall bit rate : 17.3 Mb/s

  10. Encoded date : UTC 2022-05-27 05:23:36

  11. Writing application : mkvmerge v67.0.0 ('Under Stars') 64-bit

  12. Writing library : libebml v1.4.2 + libmatroska v1.6.4

  13. Video

  14. ID : 1

  15. Format : HEVC

  16. Format/Info : High Efficiency Video Coding

  17. Format profile : Main 10@L5@High

  18. HDR format : SMPTE ST 2086, HDR10 compatible

  19. Codec ID : V_MPEGH/ISO/HEVC

  20. Duration : 1 h 54 min

  21. Bit rate : 16.5 Mb/s

  22. Width : 3 840 pixels

  23. Height : 2 160 pixels

  24. Display aspect ratio : 16:9

  25. Frame rate mode : Constant

  26. Frame rate : 23.976 (24000/1001/53354) FPS

  27. Color space : YUV

  28. Chroma subsampling : 4:2:0

  29. Bit depth : 10 bits

  30. Bits/(Pixel*Frame) : 0.083

  31. Stream size : 13.3 GiB (96%)

  32. Language : English

  33. Default : Yes

  34. Forced : No

  35. Color range : Limited

  36. Color primaries : BT.2020

  37. Transfer characteristics : PQ

  38. Matrix coefficients : BT.2020 non-constant

  39. Mastering display color primaries : Display P3

  40. Mastering display luminance : min: 0.0050 cd/m2, max: 4000 cd/m2

  41. Audio

  42. ID : 2

  43. Format : E-AC-3 JOC

  44. Format/Info : Enhanced AC-3 with Joint Object Coding

  45. Commercial name : Dolby Digital Plus with Dolby Atmos

  46. Codec ID : A_EAC3

  47. Duration : 1 h 54 min

  48. Bit rate mode : Constant

  49. Bit rate : 768 kb/s

  50. Channel(s) : 6 channels

  51. Channel layout : L R C LFE Ls Rs

  52. Sampling rate : 48.0 kHz

  53. Frame rate : 31.250 FPS (1536 SPF)

  54. Compression mode : Lossy

  55. Stream size : 631 MiB (4%)

  56. Language : English

  57. Service kind : Complete Main

  58. Default : Yes

  59. Forced : No

  60. Complexity index : 16

  61. Number of dynamic objects : 15

  62. Bed channel count : 1 channel

  63. Bed channel configuration : LFE

  64. Text #1

  65. ID : 3

  66. Format : UTF-8

  67. Codec ID : S_TEXT/UTF8

  68. Codec ID/Info : UTF-8 Plain Text

  69. Duration : 1 h 54 min

  70. Bit rate : 48 b/s

  71. Count of elements : 1584

  72. Stream size : 40.8 KiB (0%)

  73. Title : SDH

  74. Language : English

  75. Default : No

  76. Forced : No

  77. Text #2

  78. ID : 4

  79. Format : UTF-8

  80. Codec ID : S_TEXT/UTF8

  81. Codec ID/Info : UTF-8 Plain Text

  82. Duration : 1 h 52 min

  83. Bit rate : 40 b/s

  84. Count of elements : 977

  85. Stream size : 33.3 KiB (0%)

  86. Language : Danish

  87. Default : No

  88. Forced : No

  89. Text #3

  90. ID : 5

  91. Format : UTF-8

  92. Codec ID : S_TEXT/UTF8

  93. Codec ID/Info : UTF-8 Plain Text

  94. Duration : 1 h 52 min

  95. Bit rate : 46 b/s

  96. Count of elements : 1274

  97. Stream size : 38.3 KiB (0%)

  98. Language : German

  99. Default : No

  100. Forced : No

  101. Text #4

  102. ID : 6

  103. Format : UTF-8

  104. Codec ID : S_TEXT/UTF8

  105. Codec ID/Info : UTF-8 Plain Text

  106. Duration : 1 h 52 min

  107. Bit rate : 44 b/s

  108. Count of elements : 1281

  109. Stream size : 36.5 KiB (0%)

  110. Title : Latin America

  111. Language : Spanish

  112. Default : No

  113. Forced : No

  114. Text #5

  115. ID : 7

  116. Format : UTF-8

  117. Codec ID : S_TEXT/UTF8

  118. Codec ID/Info : UTF-8 Plain Text

  119. Duration : 1 h 52 min

  120. Bit rate : 43 b/s

  121. Count of elements : 1277

  122. Stream size : 35.7 KiB (0%)

  123. Language : Spanish

  124. Default : No

  125. Forced : No

  126. Text #6

  127. ID : 8

  128. Format : UTF-8

  129. Codec ID : S_TEXT/UTF8

  130. Codec ID/Info : UTF-8 Plain Text

  131. Duration : 1 h 52 min

  132. Bit rate : 43 b/s

  133. Count of elements : 1273

  134. Stream size : 35.5 KiB (0%)

  135. Language : Finnish

  136. Default : No

  137. Forced : No

  138. Text #7

  139. ID : 9

  140. Format : UTF-8

  141. Codec ID : S_TEXT/UTF8

  142. Codec ID/Info : UTF-8 Plain Text

  143. Duration : 1 h 54 min

  144. Bit rate : 57 b/s

  145. Count of elements : 1649

  146. Stream size : 47.9 KiB (0%)

  147. Title : Canada (SDH)

  148. Language : French

  149. Default : No

  150. Forced : No

  151. Text #8

  152. ID : 10

  153. Format : UTF-8

  154. Codec ID : S_TEXT/UTF8

  155. Codec ID/Info : UTF-8 Plain Text

  156. Duration : 1 h 52 min

  157. Bit rate : 47 b/s

  158. Count of elements : 1304

  159. Stream size : 39.2 KiB (0%)

  160. Title : Canada

  161. Language : French

  162. Default : No

  163. Forced : No

  164. Text #9

  165. ID : 11

  166. Format : UTF-8

  167. Codec ID : S_TEXT/UTF8

  168. Codec ID/Info : UTF-8 Plain Text

  169. Duration : 1 h 54 min

  170. Bit rate : 49 b/s

  171. Count of elements : 1513

  172. Stream size : 41.4 KiB (0%)

  173. Title : SDH

  174. Language : French

  175. Default : No

  176. Forced : No

  177. Text #10

  178. ID : 12

  179. Format : UTF-8

  180. Codec ID : S_TEXT/UTF8

  181. Codec ID/Info : UTF-8 Plain Text

  182. Duration : 1 h 52 min

  183. Bit rate : 40 b/s

  184. Count of elements : 1172

  185. Stream size : 33.0 KiB (0%)

  186. Language : French

  187. Default : No

  188. Forced : No

  189. Text #11

  190. ID : 13

  191. Format : UTF-8

  192. Codec ID : S_TEXT/UTF8

  193. Codec ID/Info : UTF-8 Plain Text

  194. Duration : 1 h 52 min

  195. Bit rate : 46 b/s

  196. Count of elements : 1277

  197. Stream size : 38.1 KiB (0%)

  198. Language : Icelandic

  199. Default : No

  200. Forced : No

  201. Text #12

  202. ID : 14

  203. Format : UTF-8

  204. Codec ID : S_TEXT/UTF8

  205. Codec ID/Info : UTF-8 Plain Text

  206. Duration : 1 h 52 min

  207. Bit rate : 45 b/s

  208. Count of elements : 1278

  209. Stream size : 37.2 KiB (0%)

  210. Language : Italian

  211. Default : No

  212. Forced : No

  213. Text #13

  214. ID : 15

  215. Format : UTF-8

  216. Codec ID : S_TEXT/UTF8

  217. Codec ID/Info : UTF-8 Plain Text

  218. Duration : 1 h 52 min

  219. Bit rate : 35 b/s

  220. Count of elements : 1118

  221. Stream size : 29.1 KiB (0%)

  222. Language : Japanese

  223. Default : No

  224. Forced : No

  225. Text #14

  226. ID : 16

  227. Format : UTF-8

  228. Codec ID : S_TEXT/UTF8

  229. Codec ID/Info : UTF-8 Plain Text

  230. Duration : 1 h 52 min

  231. Bit rate : 42 b/s

  232. Count of elements : 1283

  233. Stream size : 34.6 KiB (0%)

  234. Language : Korean

  235. Default : No

  236. Forced : No

  237. Text #15

  238. ID : 17

  239. Format : UTF-8

  240. Codec ID : S_TEXT/UTF8

  241. Codec ID/Info : UTF-8 Plain Text

  242. Duration : 1 h 52 min

  243. Bit rate : 42 b/s

  244. Count of elements : 1281

  245. Stream size : 35.0 KiB (0%)

  246. Language : Norwegian Bokmal

  247. Default : No

  248. Forced : No

  249. Text #16

  250. ID : 18

  251. Format : UTF-8

  252. Codec ID : S_TEXT/UTF8

  253. Codec ID/Info : UTF-8 Plain Text

  254. Duration : 1 h 52 min

  255. Bit rate : 39 b/s

  256. Count of elements : 922

  257. Stream size : 32.6 KiB (0%)

  258. Language : Dutch

  259. Default : No

  260. Forced : No

  261. Text #17

  262. ID : 19

  263. Format : UTF-8

  264. Codec ID : S_TEXT/UTF8

  265. Codec ID/Info : UTF-8 Plain Text

  266. Duration : 1 h 52 min

  267. Bit rate : 39 b/s

  268. Count of elements : 1258

  269. Stream size : 32.1 KiB (0%)

  270. Language : Polish

  271. Default : No

  272. Forced : No

  273. Text #18

  274. ID : 20

  275. Format : UTF-8

  276. Codec ID : S_TEXT/UTF8

  277. Codec ID/Info : UTF-8 Plain Text

  278. Duration : 1 h 52 min

  279. Bit rate : 43 b/s

  280. Count of elements : 1279

  281. Stream size : 35.9 KiB (0%)

  282. Title : Brazil

  283. Language : Portuguese

  284. Default : No

  285. Forced : No

  286. Text #19

  287. ID : 21

  288. Format : UTF-8

  289. Codec ID : S_TEXT/UTF8

  290. Codec ID/Info : UTF-8 Plain Text

  291. Duration : 1 h 52 min

  292. Bit rate : 44 b/s

  293. Count of elements : 1285

  294. Stream size : 36.9 KiB (0%)

  295. Language : Portuguese

  296. Default : No

  297. Forced : No

  298. Text #20

  299. ID : 22

  300. Format : UTF-8

  301. Codec ID : S_TEXT/UTF8

  302. Codec ID/Info : UTF-8 Plain Text

  303. Duration : 1 h 52 min

  304. Bit rate : 41 b/s

  305. Count of elements : 884

  306. Stream size : 34.0 KiB (0%)

  307. Language : Swedish

  308. Default : No

  309. Forced : No

  310. Text #21

  311. ID : 23

  312. Format : UTF-8

  313. Codec ID : S_TEXT/UTF8

  314. Codec ID/Info : UTF-8 Plain Text

  315. Duration : 1 h 52 min

  316. Bit rate : 41 b/s

  317. Count of elements : 1271

  318. Stream size : 34.4 KiB (0%)

  319. Title : Simplified

  320. Language : Chinese

  321. Default : No

  322. Forced : No

  323. Text #22

  324. ID : 24

  325. Format : UTF-8

  326. Codec ID : S_TEXT/UTF8

  327. Codec ID/Info : UTF-8 Plain Text

  328. Duration : 1 h 52 min

  329. Bit rate : 36 b/s

  330. Count of elements : 1329

  331. Stream size : 29.9 KiB (0%)

  332. Title : Traditional

  333. Language : Chinese

  334. Default : No

  335. Forced : No

  336. Text #23

  337. ID : 25

  338. Format : UTF-8

  339. Codec ID : S_TEXT/UTF8

  340. Codec ID/Info : UTF-8 Plain Text

  341. Duration : 1 h 52 min

  342. Bit rate : 32 b/s

  343. Count of elements : 1284

  344. Stream size : 26.9 KiB (0%)

  345. Title : Traditional, Hong Kong

  346. Language : Chinese

  347. Default : No

  348. Forced : No


复制代码


TAGS 动作 奇幻 冒险 /

磁力链:
  • magnet:?xt=urn:btih:E61E757C65A4A04BB3E024B525F96B671BFB5E8E
上传的附件:
BT9527电影天堂 1、BT9527电影天堂提供的BT文件均来源于互联网抓取,只供网友学习交流、技术提升使用。
2、我们遵守BitTorrent点对点协议原则,任何版权问题请联系原资源发布商,我们不处理任何版权纠纷,谢谢!如有争议请联系邮箱:BT9527#hotmail.com(#换成@)
3、如果您发现某页面或地址有错误,请联系站长邮箱BT9527#hotmail.com(#换成@),我们会尽快处理。您的热心是对BT9527电影天堂最大的支持。
4、本站建议去正规影院观看电影以支持电影行业发展。
最新回复 (0)

你可以在 登录 or 注册 后,对此帖发表评论!

返回
发新帖