复活侏罗纪[国语配音/中文字幕].Fu.Huo.Zhu.Luo.Ji.2022.2160p.WEB-DL.H265.AAC-HDBWEB 2.05GB

版主小s 4月前 462

◎译 名 复活侏罗纪

◎年 代 2022

◎产 地 中国大陆

◎类 别 动作 / 惊悚

◎语 言 汉语普通话

◎上映日期 2022-05-29(中国大陆)

◎IMDb链接 https://www.imdb.com/title//

◎豆瓣链接 https://movie.douban.com/subject/35898938/

◎片 长 80分钟

◎演 员 马芯妤 Xinyu Ma (id:1423380)

杨奇雨 Qiyu Yang (id:1275968)

常海波 Haibo Chang (id:1336857)

◎简 介

数十年前,一颗陨石降落在某岛,科考队前来探秘,却遭遇史前霸主暴虐龙袭击全军覆没!之后无数人想解开陨石的秘密,受雇于神秘集团的一队雇佣兵,胁迫女科学家和爆破专家登岛探秘,见证了食物链霸主的复活......而女科学家也发现了当年父亲失踪的秘密。

  1. ##### MediaInfo ######

  2. General

  3. Complete name : 复活侏罗纪.Fu.Huo.Zhu.Luo.Ji.2022.2160p.WEB-DL.H265.AAC-HDBWEB.mp4

  4. Format : MPEG-4

  5. Format profile : Base Media

  6. Codec ID : isom (isom/iso2/mp41)

  7. File size : 2.05 GiB

  8. Duration : 1 h 10 min

  9. Overall bit rate mode : Variable

  10. Overall bit rate : 4 132 kb/s

  11. Writing application : Lavf58.17.103

  12. Video

  13. ID : 1

  14. Format : HEVC

  15. Format/Info : High Efficiency Video Coding

  16. Format profile : Main@L5@Main

  17. Codec ID : hev1

  18. Codec ID/Info : High Efficiency Video Coding

  19. Duration : 1 h 10 min

  20. Bit rate : 4 000 kb/s

  21. Width : 3 840 pixels

  22. Height : 1 448 pixels

  23. Display aspect ratio : 2.652

  24. Frame rate mode : Variable

  25. Frame rate : 25.000 FPS

  26. Minimum frame rate : 24.993 FPS

  27. Maximum frame rate : 25.007 FPS

  28. Color space : YUV

  29. Chroma subsampling : 4:2:0

  30. Bit depth : 8 bits

  31. Bits/(Pixel*Frame) : 0.029

  32. Stream size : 1.98 GiB (97%)

  33. Color range : Limited

  34. Color primaries : BT.709

  35. Transfer characteristics : BT.709

  36. Matrix coefficients : BT.709

  37. Codec configuration box : hvcC

  38. Audio

  39. ID : 2

  40. Format : AAC LC

  41. Format/Info : Advanced Audio Codec Low Complexity

  42. Codec ID : mp4a-40-2

  43. Duration : 1 h 10 min

  44. Bit rate mode : Variable

  45. Bit rate : 125 kb/s

  46. Maximum bit rate : 133 kb/s

  47. Channel(s) : 2 channels

  48. Channel layout : L R

  49. Sampling rate : 48.0 kHz

  50. Frame rate : 46.875 FPS (1024 SPF)

  51. Compression mode : Lossy

  52. Stream size : 63.6 MiB (3%)

  53. Default : Yes

  54. Alternate group : 1


复制代码


TAGS 动作 惊悚 /

磁力链:
  • magnet:?xt=urn:btih:27A137A805E4EF40C777C5768E95B2FE7DC439A7
上传的附件:
BT9527电影天堂 1、BT9527电影天堂提供的BT文件均来源于互联网抓取,只供网友学习交流、技术提升使用。
2、我们遵守BitTorrent点对点协议原则,任何版权问题请联系原资源发布商,我们不处理任何版权纠纷,谢谢!如有争议请联系邮箱:BT9527#hotmail.com(#换成@)
3、如果您发现某页面或地址有错误,请联系站长邮箱BT9527#hotmail.com(#换成@),我们会尽快处理。您的热心是对BT9527电影天堂最大的支持。
4、本站建议去正规影院观看电影以支持电影行业发展。
最新回复 (1)

你可以在 登录 or 注册 后,对此帖发表评论!

返回
发新帖