轮到你了 剧场版[简繁字幕].Your.Turn.to.Kill.2021.1080p.BluRay.x265.10bit.DTS-HomeHD 6.56GB

版主小s 1月前 559

◎译 名 轮到你了 剧场版 / Your Turn to Kill

◎片 名 あなたの番です 劇場版

◎年 代 2021

◎产 地 日本

◎类 别 剧情 / 悬疑 / 犯罪

◎语 言 日语

◎上映日期 2021-12-10(日本)

◎IMDb链接 https://www.imdb.com/title/tt15034594/

◎豆瓣评分 5.4/10 (265人评价)

◎豆瓣链接 https://movie.douban.com/subject/35391281/

◎片 长 142分钟

◎导 演 佐久间纪佳 Noriyoshi Sakuma (id:1320559)

◎编 剧 秋元康 Yasushi Akimoto (id:1314234)

福原充则 Mitsunori Fukuhara (id:1361106)

◎演 员 原田知世 Tomoyo Harada (id:1038902)

田中圭 Kei Tanaka (id:1011150)

西野七濑 Nanase Nishino (id:1337813)

横滨流星 Ry?sei Yokohama (id:1328737)

浅香航大 K?dai Asaka (id:1329302)

奈绪 Nao. (id:1218145)

山田真步 Maho Yamada (id:1359145)

三仓佳奈 Kana Mikura (id:1035029)

大友花恋 Otomo Karen (id:1336364)

金泽美穗 Miho Kanazawa (id:1314831)

坪仓由幸 Yoshiyuki Tsubokura (id:1390417)

中尾畅树 Nakao Masaki (id:1353843)

小池亮介 Ryosuke Koike (id:1413047)

井阪郁巳 Ikumi Isaka (id:1415041)

荒木飞羽 Towa Araki (id:1379124)

前原滉 Maeko (id:1384246)

大内田悠平 Y?hei Ohuchida (id:1386394)

袴田吉彦 Yoshihiko Hakamada (id:1012463)

片桐仁 Jin Katagiri (id:1332520)

真飞圣 Sei Matobu (id:1319110)

和田聪宏 Toshihiro Wada (id:1002255)

野间口彻 T?ru Nomaguchi (id:1338104)

皆川猿时 Sarutoki Minagawa (id:1007687)

田中哲司 Tetsushi Tanaka (id:1313629)

德井优 Yu Tokui (id:1029376)

田中要次 Y?ji Tanaka (id:1025561)

长野里美 Satomi Nagano (id:1390599)

坂田雅信 Masanobu Sakata (id:1326035)

大方斐纱子 Hisako Ohkata (id:1386968)

峰村理惠 Rie Minemura (id:1349740)

竹中直人 Naoto Takenaka (id:1035579)

木村多江 Tae Kimura (id:1033326)

生濑胜久 Katsuhisa Namase (id:1029321)

门胁麦 Mugi Kadowaki (id:1329131)

酒向芳 Yoshi Sakou (id:1412012)

片冈礼子 Reiko Kataoka (id:1037870)

林泰文 Yasufumi Hayashi (id:1038997)

安藤政信 Masanobu And? (id:1045426)

◎简 介

电影版非电视剧版的续作,而是讲述剧版世界的平行故事,新婚夫妇菜奈(原田知世 饰)和翔太(田中圭 饰)搬入公寓两年后,邀请邻居们参加他们在游轮上办的婚宴,不料在无处可逃的游轮上发生了连续杀人事件,每个人在试图解决案件时,却触发了意想不到的杀意……

  1. ##### MediaInfo ######

  2. General

  3. Unique ID : 39015367757841016624247758297495717060 (0x1D5A16253B5093FAC72D79B97F2344C4)

  4. Complete name : Your.Turn.to.Kill.2021.1080p.BluRay.x265.10bit.DTS-HomeHD.mkv

  5. Format : Matroska

  6. Format version : Version 4

  7. File size : 6.56 GiB

  8. Duration : 2 h 22 min

  9. Overall bit rate : 6 608 kb/s

  10. Movie name : Your Turn to Kill

  11. Encoded date : UTC 2022-05-28 10:46:36

  12. Writing application : mkvmerge v68.0.0 ('The Curtain') 64-bit

  13. Writing library : libebml v1.4.2 + libmatroska v1.6.4

  14. Attachments : 华康华综体.ttf / FangZhengKaiTi-GBK-1.ttf

  15. Video

  16. ID : 1

  17. Format : HEVC

  18. Format/Info : High Efficiency Video Coding

  19. Format profile : Main 10@L4@Main

  20. Codec ID : V_MPEGH/ISO/HEVC

  21. Duration : 2 h 22 min

  22. Bit rate : 5 079 kb/s

  23. Width : 1 920 pixels

  24. Height : 802 pixels

  25. Display aspect ratio : 2.40:1

  26. Frame rate mode : Constant

  27. Frame rate : 23.976 (24000/1001/53354) FPS

  28. Color space : YUV

  29. Chroma subsampling : 4:2:0

  30. Bit depth : 10 bits

  31. Bits/(Pixel*Frame) : 0.138

  32. Stream size : 5.04 GiB (77%)

  33. Title : Jubowo @ WiKi

  34. Language : Japanese

  35. Default : Yes

  36. Forced : No

  37. Audio

  38. ID : 2

  39. Format : DTS

  40. Format/Info : Digital Theater Systems

  41. Codec ID : A_DTS

  42. Duration : 2 h 22 min

  43. Bit rate mode : Constant

  44. Bit rate : 1 509 kb/s

  45. Channel(s) : 6 channels

  46. Channel layout : C L R Ls Rs LFE

  47. Sampling rate : 48.0 kHz

  48. Frame rate : 93.750 FPS (512 SPF)

  49. Bit depth : 24 bits

  50. Compression mode : Lossy

  51. Stream size : 1.50 GiB (23%)

  52. Language : Japanese

  53. Default : Yes

  54. Forced : No

  55. Text #1

  56. ID : 3

  57. Format : ASS

  58. Codec ID : S_TEXT/ASS

  59. Codec ID/Info : Advanced Sub Station Alpha

  60. Duration : 2 h 21 min

  61. Bit rate : 78 b/s

  62. Count of elements : 1862

  63. Compression mode : Lossless

  64. Stream size : 81.4 KiB (0%)

  65. Title : 简体

  66. Language : Chinese

  67. Default : Yes

  68. Forced : No

  69. Text #2

  70. ID : 4

  71. Format : ASS

  72. Codec ID : S_TEXT/ASS

  73. Codec ID/Info : Advanced Sub Station Alpha

  74. Duration : 2 h 21 min

  75. Bit rate : 78 b/s

  76. Count of elements : 1862

  77. Compression mode : Lossless

  78. Stream size : 81.4 KiB (0%)

  79. Title : 繁體

  80. Language : Chinese

  81. Default : No

  82. Forced : No

  83. Menu

  84. 00:00:00.000 : en:Chapter 01

  85. 00:05:26.618 : en:Chapter 02

  86. 00:22:19.838 : en:Chapter 03

  87. 00:43:29.607 : en:Chapter 04

  88. 00:56:48.280 : en:Chapter 05

  89. 01:10:03.699 : en:Chapter 06

  90. 01:30:08.778 : en:Chapter 07

  91. 01:39:08.442 : en:Chapter 08

  92. 01:51:26.889 : en:Chapter 09

  93. 02:10:54.472 : en:Chapter 10

  94. 02:17:11.223 : en:Chapter 11


复制代码


TAGS 剧情 悬疑 犯罪 /

磁力链:
  • magnet:?xt=urn:btih:2AA00DB3DB0D8B7884C6F17A40EAF1ABFFA8D1AC
上传的附件:
BT9527电影天堂 1、BT9527电影天堂提供的BT文件均来源于互联网抓取,只供网友学习交流、技术提升使用。
2、我们遵守BitTorrent点对点协议原则,任何版权问题请联系原资源发布商,我们不处理任何版权纠纷,谢谢!如有争议请联系邮箱:BT9527#hotmail.com(#换成@)
3、如果您发现某页面或地址有错误,请联系站长邮箱BT9527#hotmail.com(#换成@),我们会尽快处理。您的热心是对BT9527电影天堂最大的支持。
4、本站建议去正规影院观看电影以支持电影行业发展。
最新回复 (0)

你可以在 登录 or 注册 后,对此帖发表评论!

返回
发新帖