为父寻仇[中文字幕].This.Must.Be.The.Place.2011.1080p.BluRay.DTS.x265-10bit-ENTHD 8.33GB

版主小s 4月前 211

◎译 名 为父寻仇 / 重金摇滚男的奇异旅程(台) / 一定是这里了

◎片 名 This Must Be the Place

◎年 代 2011

◎产 地 意大利 / 法国 / 爱尔兰

◎类 别 剧情 / 惊悚 / 犯罪

◎语 言 英语 / 希伯来语

◎上映日期 2011-08-24(法国)

◎IMDb链接 https://www.imdb.com/title/tt1440345/

◎豆瓣评分 6.9/10 (1995人评价)

◎豆瓣链接 https://movie.douban.com/subject/3743063/

◎片 长 118分钟

◎导 演 保罗·索伦蒂诺 Paolo Sorrentino (id:1018303)

◎编 剧 保罗·索伦蒂诺 Paolo Sorrentino (id:1018303)

翁贝托·康塔罗 Umberto Contarello (id:1281164)

◎演 员 西恩·潘 Sean Penn (id:1054527)

欧文·弗热瑞 Olwen Fouéré (id:1355887)

伊芙·休森 Eve Hewson (id:1236911)

山姆·基利 Sam Keeley (id:1316917)

弗兰西斯·麦克多蒙德 Frances McDormand (id:1010548)

西蒙·德兰尼 Simon Delaney (id:1282187)

李伦·勒夫 Liron Levo (id:1008142)

大卫·伯恩 David Byrne (id:1067450)

弗里茨·韦弗 Fritz Weaver (id:1161507)

贾德·赫希 Judd Hirsch (id:1055274)

Bern Cohen Bern Cohen (id:1331148)

谢伊·惠格姆 Shea Whigham (id:1165173)

戈登·迈克尔斯 Gordon Michaels (id:1331227)

乔伊丝·冯派特 Joyce Van Patten (id:1032072)

Madge Levinson Madge Levinson (id:1190394)

凯瑞·康顿 Kerry Condon (id:1013874)

塞斯·艾德金斯 Seth Adkins (id:1041305)

斯塔福德·道格拉斯 Stafford Douglas (id:1340555)

布兹·萨瑟兰德 Boots Southerland (id:1407528)

罗恩·科登 Ron Coden (id:1323424)

Amy Julia Cheyfitz Amy Julia Cheyfitz (id:1018855)

哈利·戴恩·斯坦通 Harry Dean Stanton (id:1010582)

Heinz Lieven Heinz Lieven (id:1121713)

格雷格·杜佐斯科马 Greg Trzaskoma (id:1194516)

艾玛·洛克 Emma Lock (id:1356981)

安东尼奥·蒙达 Antonio Monda (id:1119998)

加文·欧康诺 Gavin O'Connor (id:1037298)

巴拉克·奥巴马 Barack Obama (id:1022711)

杰米·奥利弗 Jamie Oliver (id:1018268)

莎拉·佩林 Sarah Palin (id:1004958)

布朗温·里德 Bronwyn Reed (id:1261159)

麦尔斯·费舍 Miles Fisher (id:1009681)

汤姆·阿齐迪肯 Tom Archdeacon (id:1000291)

安德烈亚·奥基平蒂 Andrea Occhipinti (id:1050542)

大卫·伯恩 David Byrne (id:1067450)

路卡·毕格兹 Luca Bigazzi (id:1278619)

克里斯蒂亚诺·特拉瓦格利奥利 Cristiano Travaglioli (id:1305299)

艾琳·奥布莱恩 Irene O'Brien (id:1466548)

斯蒂凡尼亚·切拉 Stefania Cella (id:1338615)

路易莎·阿贝尔 Luisa Abel (id:1338616)

◎简 介

夏安(西恩·潘 Sean Penn 饰)是一名退休的摇滚乐手,富足和闲适的生活让他逐渐失去了往日的精神和锐气。父亲的病危让夏安来到了纽约,虽然没有见到父亲最后一面,但夏安终于找到了未来的目标。原来,夏安的父亲曾经在奥斯维辛集中营中受过虐待,这一段历史一直折磨着劫后余生的老人,而当年的罪魁祸首阿洛伊斯(Heinz Lieven 饰),如今正在美国的某处过着无忧无虑的生活。

必须要找到这个人面兽心的恶魔,这是夏安心中唯一的信念,带着这样的信念,夏安踏上了复仇的旅程。一路上,夏安遇到了许多人,许多事,正是这些人和事逐渐改变了夏安复仇的念头。渐渐的,对于这次旅行的目的,夏安开始迷惘起来。

◎获奖情况 (共16项)

第64届戛纳电影节 (2011)

主竞赛单元 金棕榈奖(提名)

└──保罗·索伦蒂诺 (id:1018303)

天主教人道精神奖

└──保罗·索伦蒂诺 (id:1018303)

第56届意大利大卫奖 (2012)

最佳影片(提名)

最佳导演(提名)

└──保罗·索伦蒂诺 (id:1018303)

最佳剧本

最佳制片人(提名)

最佳摄影

└──路卡·毕格兹 (id:1278619)

最佳音乐

└──大卫·伯恩 (id:1067450)

最佳原创歌曲

最佳美术设计(提名)

└──斯蒂凡尼亚·切拉 (id:1338615)

最佳服装设计(提名)

└──凯伦·帕奇 (id:1294072)

最佳化妆

└──路易莎·阿贝尔 (id:1338616)

最佳发型设计

└──金·桑坦托尼奥 (id:1296669)

最佳剪辑(提名)

最佳音效(提名)

最佳视觉效果(提名)

  1. ##### MediaInfo ######

  2. General

  3. Unique ID : 312542494097720130171613495551130293366 (0xEB217EAD05FB2C8404D4838C21735476)

  4. Complete name : This.Must.Be.The.Place.2011.1080p.BluRay.DTS.x265-10bit-ENTHD.mkv

  5. Format : Matroska

  6. Format version : Version 4

  7. File size : 8.33 GiB

  8. Duration : 1 h 51 min

  9. Overall bit rate : 10.7 Mb/s

  10. Movie name : This Must Be The Place 2011 1080p BluRay DTS x265-10bit-HDS

  11. Encoded date : UTC 2022-05-28 06:20:33

  12. Writing application : mkvmerge v67.0.0 ('Under Stars') 64-bit

  13. Writing library : libebml v1.4.2 + libmatroska v1.6.4

  14. Video

  15. ID : 1

  16. Format : HEVC

  17. Format/Info : High Efficiency Video Coding

  18. Format profile : Main 10@L5.1@High

  19. Codec ID : V_MPEGH/ISO/HEVC

  20. Duration : 1 h 51 min

  21. Bit rate : 9 198 kb/s

  22. Width : 1 920 pixels

  23. Height : 812 pixels

  24. Display aspect ratio : 2.35:1

  25. Frame rate mode : Constant

  26. Frame rate : 23.976 (24000/1001/53354) FPS

  27. Color space : YUV

  28. Chroma subsampling : 4:2:0

  29. Bit depth : 10 bits

  30. Bits/(Pixel*Frame) : 0.246

  31. Stream size : 7.15 GiB (86%)

  32. Title : venjulegt@HDSky

  33. Writing library : x265 - H.265/HEVC codec

  34. Default : Yes

  35. Forced : No

  36. Audio

  37. ID : 2

  38. Format : DTS

  39. Format/Info : Digital Theater Systems

  40. Codec ID : A_DTS

  41. Duration : 1 h 51 min

  42. Bit rate mode : Constant

  43. Bit rate : 1 509 kb/s

  44. Channel(s) : 6 channels

  45. Channel layout : C L R Ls Rs LFE

  46. Sampling rate : 48.0 kHz

  47. Frame rate : 93.750 FPS (512 SPF)

  48. Bit depth : 24 bits

  49. Compression mode : Lossy

  50. Stream size : 1.17 GiB (14%)

  51. Title : English

  52. Language : English

  53. Default : Yes

  54. Forced : No

  55. Text

  56. ID : 3

  57. Format : PGS

  58. Muxing mode : zlib

  59. Codec ID : S_HDMV/PGS

  60. Codec ID/Info : Picture based subtitle format used on BDs/HD-DVDs

  61. Duration : 1 h 50 min

  62. Bit rate : 34.3 kb/s

  63. Count of elements : 2755

  64. Stream size : 27.2 MiB (0%)

  65. Title : ENG

  66. Language : English

  67. Default : Yes

  68. Forced : No

  69. Menu

  70. 00:00:00.000 : en:第 01 章

  71. 00:04:33.440 : en:第 02 章

  72. 00:11:56.966 : en:第 03 章

  73. 00:17:38.057 : en:第 04 章

  74. 00:24:38.852 : en:第 05 章

  75. 00:31:02.903 : en:第 06 章

  76. 00:38:30.808 : en:第 07 章

  77. 00:45:24.722 : en:第 08 章

  78. 00:54:10.539 : en:第 09 章

  79. 01:01:50.373 : en:第 10 章

  80. 01:09:30.625 : en:第 11 章

  81. 01:17:13.754 : en:第 12 章

  82. 01:25:28.332 : en:第 13 章

  83. 01:32:07.939 : en:第 14 章

  84. 01:41:19.782 : en:第 15 章

  85. 01:46:44.398 : en:第 16 章


复制代码


TAGS 剧情 惊悚 犯罪 /

磁力链:
  • magnet:?xt=urn:btih:79B7A856BADB423C38269D5A0C46B3B0AD45D08E
上传的附件:
BT9527电影天堂 1、BT9527电影天堂提供的BT文件均来源于互联网抓取,只供网友学习交流、技术提升使用。
2、我们遵守BitTorrent点对点协议原则,任何版权问题请联系原资源发布商,我们不处理任何版权纠纷,谢谢!如有争议请联系邮箱:BT9527#hotmail.com(#换成@)
3、如果您发现某页面或地址有错误,请联系站长邮箱BT9527#hotmail.com(#换成@),我们会尽快处理。您的热心是对BT9527电影天堂最大的支持。
4、本站建议去正规影院观看电影以支持电影行业发展。
最新回复 (0)

你可以在 登录 or 注册 后,对此帖发表评论!

返回
发新帖