铁面无私[中文字幕].The.Untouchables.1987.2160p.HDR.UHD.BluRay.DD5.1.x265-10bit-ENTHD 6.95GB

版主小s 1月前 116

◎译 名 铁面无私 / 义胆雄心(港) / 不可触犯

◎片 名 The Untouchables

◎年 代 1987

◎产 地 美国

◎类 别 剧情 / 惊悚 / 历史 / 犯罪

◎语 言 英语

◎上映日期 1987-06-02(纽约首映)

◎IMDb链接 https://www.imdb.com/title/tt0094226/

◎豆瓣评分 7.7/10 (18200人评价)

◎豆瓣链接 https://movie.douban.com/subject/1292532/

◎片 长 119分钟

◎导 演 布莱恩·德·帕尔玛 Brian De Palma (id:1012516)

◎编 剧 大卫·马梅 David Mamet (id:1036481)

Oscar Fraley Oscar Fraley (id:1023960)

Eliot Ness Eliot Ness (id:1000881)

◎演 员 凯文·科斯特纳 Kevin Costner (id:1016671)

肖恩·康纳利 Sean Connery (id:1018982)

查尔斯·马丁·史密斯 Charles Martin Smith (id:1041194)

安迪·加西亚 Andy Garcia (id:1002695)

罗伯特·德尼罗 Robert De Niro (id:1054445)

理查德·布拉德福德 Richard Bradford (id:1075126)

杰克·基欧 Jack Kehoe (id:1103670)

布拉德·苏利文 Brad Sullivan (id:1041292)

比利·德拉戈 Billy Drago (id:1049756)

派翠西娅·克拉克森 Patricia Clarkson (id:1013791)

维托·达布罗西奥 Vito D'Ambrosio (id:1072426)

Steven Goldstein Steven Goldstein (id:1094032)

唐·哈维 Don Harvey (id:1345203)

德尔克洛斯 Del Close (id:1077508)

迈克·巴卡雷纳 Mike Bacarella (id:1432840)

拉里·布兰登伯格 Larry Brandenburg (id:1074035)

切尔西·罗斯 Chelcie Ross (id:1041208)

Sam Smiley Sam Smiley (id:1154025)

Jennifer Anglin Jennifer Anglin (id:1277282)

Vince Viverito Vince Viverito (id:1166926)

Joe Greco Joe Greco (id:1091631)

Robert Miranda Robert Miranda (id:1350584)

约翰·巴罗曼 John Barrowman (id:1031887)

Stephen Burrows Stephen Burrows (id:1279687)

Ernest Capponi Ernest Capponi (id:1069858)

埃迪·多诺 Eddy Donno (id:1282590)

Jack Fitzstephens Jack Fitzstephens (id:1283818)

克里夫顿·詹姆斯 Clifton James (id:1019158)

Matt Johnston Matt Johnston (id:1287839)

阿特·林森 Art Linson (id:1290103)

恩尼奥·莫里康内 Ennio Morricone (id:1044688)

史蒂芬·H·布鲁姆 Stephen H. Burum (id:1037457)

比尔·潘科 Bill Pankow (id:1293896)

威廉·A·艾略特 William A. Elliott (id:1283133)

哈尔·高斯曼 Hal Gausman (id:1284639)

玛丽莲·万斯 Marilyn Vance (id:1276618)

乔治·阿玛尼 Giorgio Armani (id:1009850)

迈克尔·汉考克 Michael Hancock (id:1285947)

Glen Trotiner Glen Trotiner (id:1299553)

◎简 介

30年代的芝加哥充满了混乱,黑道横行官商勾结,其中,要数掌握着私酒市场命脉的黑帮老大卡彭(罗伯特·德尼罗 Robert De Niro 饰)的势力最为强大。即使在这样黑暗的环境中,联邦探员纳斯(凯文·科斯特纳 Kevin Costner 饰)也依然怀抱着惩奸除恶的理想, 可是很快,现实便教会了他,在这个世界里,谁才是老大。

在老警探马龙(肖恩·康纳利 Sean Connery 饰)的帮助下,纳斯重拾了自信,他组织了一个专案小组,专门调查和打击卡彭的犯罪事业。在纳斯的努力下,小组的行动初显成效,可随之而来的,就是来自卡彭的威胁和迫害。组员被杀,马龙受伤,这一切的一切都不能使纳斯消沉,反而更加坚定了他除掉卡彭的决心,一场激烈的较量在正义和邪恶之间拉开了帷幕。

◎获奖情况 (共4项)

第60届奥斯卡金像奖 (1988)

最佳男配角

└──肖恩·康纳利 (id:1018982)

最佳艺术指导(提名)

最佳服装设计(提名)

└──玛丽莲·万斯 (id:1276618)

最佳原创配乐(提名)

└──恩尼奥·莫里康内 (id:1044688)

  1. ##### MediaInfo ######

  2. General

  3. Unique ID : 325160319380944070089433981518767879811 (0xF49F997E388B6EB335EB2B943AC27683)

  4. Complete name : The.Untouchables.1987.2160p.HDR.UHD.BluRay.DD5.1.x265-10bit-ENTHD.mkv

  5. Format : Matroska

  6. Format version : Version 4

  7. File size : 6.94 GiB

  8. Duration : 1 h 59 min

  9. Overall bit rate : 8 324 kb/s

  10. Movie name : The Untouchables 1987 2160p HDR UHD BluRay DD5.1 x265-10bit-HDS

  11. Encoded date : UTC 2022-05-28 22:09:09

  12. Writing application : mkvmerge v67.0.0 ('Under Stars') 64-bit

  13. Writing library : libebml v1.4.2 + libmatroska v1.6.4

  14. Video

  15. ID : 1

  16. Format : HEVC

  17. Format/Info : High Efficiency Video Coding

  18. Format profile : Main 10@L5.1@High

  19. HDR format : SMPTE ST 2086, HDR10 compatible

  20. Codec ID : V_MPEGH/ISO/HEVC

  21. Duration : 1 h 59 min

  22. Bit rate : 7 609 kb/s

  23. Width : 3 840 pixels

  24. Height : 1 600 pixels

  25. Display aspect ratio : 2.40:1

  26. Frame rate mode : Constant

  27. Frame rate : 23.976 (24000/1001/53354) FPS

  28. Color space : YUV

  29. Chroma subsampling : 4:2:0

  30. Bit depth : 10 bits

  31. Bits/(Pixel*Frame) : 0.052

  32. Stream size : 6.35 GiB (91%)

  33. Title : @HDSky

  34. Writing library : x265 - H.265/HEVC codec

  35. Default : Yes

  36. Forced : No

  37. Color range : Limited

  38. Color primaries : BT.2020

  39. Transfer characteristics : PQ

  40. Matrix coefficients : BT.2020 non-constant

  41. Mastering display color primaries : Display P3

  42. Mastering display luminance : min: 0.0020 cd/m2, max: 1000 cd/m2

  43. Maximum Content Light Level : 739 cd/m2

  44. Maximum Frame-Average Light Level : 331 cd/m2

  45. Audio

  46. ID : 2

  47. Format : AC-3

  48. Format/Info : Audio Coding 3

  49. Commercial name : Dolby Digital

  50. Codec ID : A_AC3

  51. Duration : 1 h 59 min

  52. Bit rate mode : Constant

  53. Bit rate : 640 kb/s

  54. Channel(s) : 6 channels

  55. Channel layout : L R C LFE Ls Rs

  56. Sampling rate : 48.0 kHz

  57. Frame rate : 31.250 FPS (1536 SPF)

  58. Compression mode : Lossy

  59. Stream size : 547 MiB (8%)

  60. Title : English

  61. Language : English

  62. Service kind : Complete Main

  63. Default : Yes

  64. Forced : No

  65. Text #1

  66. ID : 3

  67. Format : PGS

  68. Muxing mode : zlib

  69. Codec ID : S_HDMV/PGS

  70. Codec ID/Info : Picture based subtitle format used on BDs/HD-DVDs

  71. Duration : 1 h 54 min

  72. Bit rate : 28.5 kb/s

  73. Count of elements : 2186

  74. Stream size : 23.3 MiB (0%)

  75. Title : CHS

  76. Language : Chinese

  77. Default : Yes

  78. Forced : No

  79. Text #2

  80. ID : 4

  81. Format : PGS

  82. Muxing mode : zlib

  83. Codec ID : S_HDMV/PGS

  84. Codec ID/Info : Picture based subtitle format used on BDs/HD-DVDs

  85. Duration : 1 h 54 min

  86. Bit rate : 29.1 kb/s

  87. Count of elements : 2186

  88. Stream size : 23.7 MiB (0%)

  89. Title : CHT

  90. Language : Chinese

  91. Default : Yes

  92. Forced : No

  93. Text #3

  94. ID : 5

  95. Format : PGS

  96. Muxing mode : zlib

  97. Codec ID : S_HDMV/PGS

  98. Codec ID/Info : Picture based subtitle format used on BDs/HD-DVDs

  99. Duration : 1 h 54 min

  100. Bit rate : 44.7 kb/s

  101. Count of elements : 2186

  102. Stream size : 36.5 MiB (1%)

  103. Title : CHS&ENG

  104. Language : Chinese

  105. Default : Yes

  106. Forced : No

  107. Text #4

  108. ID : 6

  109. Format : PGS

  110. Muxing mode : zlib

  111. Codec ID : S_HDMV/PGS

  112. Codec ID/Info : Picture based subtitle format used on BDs/HD-DVDs

  113. Duration : 1 h 54 min

  114. Bit rate : 45.2 kb/s

  115. Count of elements : 2186

  116. Stream size : 37.0 MiB (1%)

  117. Title : CHT&ENG

  118. Language : Chinese

  119. Default : Yes

  120. Forced : No

  121. Menu

  122. 00:00:00.000 : en:第 01 章

  123. 00:02:42.829 : en:第 02 章

  124. 00:06:41.233 : en:第 03 章

  125. 00:08:16.370 : en:第 04 章

  126. 00:10:39.096 : en:第 05 章

  127. 00:15:59.124 : en:第 06 章

  128. 00:19:38.218 : en:第 07 章

  129. 00:23:12.307 : en:第 08 章

  130. 00:29:39.318 : en:第 09 章

  131. 00:33:59.912 : en:第 10 章

  132. 00:36:00.074 : en:第 11 章

  133. 00:41:02.251 : en:第 12 章

  134. 00:43:26.686 : en:第 13 章

  135. 00:47:31.931 : en:第 14 章

  136. 01:01:34.273 : en:第 15 章

  137. 01:08:17.217 : en:第 16 章

  138. 01:17:16.756 : en:第 17 章

  139. 01:18:33.792 : en:第 18 章

  140. 01:22:11.760 : en:第 19 章

  141. 01:26:29.016 : en:第 20 章

  142. 01:35:57.917 : en:第 21 章

  143. 01:39:08.943 : en:第 22 章

  144. 01:47:20.434 : en:第 23 章

  145. 01:55:29.171 : en:第 24 章


复制代码


TAGS 剧情 惊悚 犯罪 历史 /

磁力链:
  • magnet:?xt=urn:btih:D3325CF2E36D7675F373A9411C93CA8469DF6479
上传的附件:
BT9527电影天堂 1、BT9527电影天堂提供的BT文件均来源于互联网抓取,只供网友学习交流、技术提升使用。
2、我们遵守BitTorrent点对点协议原则,任何版权问题请联系原资源发布商,我们不处理任何版权纠纷,谢谢!如有争议请联系邮箱:BT9527#hotmail.com(#换成@)
3、如果您发现某页面或地址有错误,请联系站长邮箱BT9527#hotmail.com(#换成@),我们会尽快处理。您的热心是对BT9527电影天堂最大的支持。
4、本站建议去正规影院观看电影以支持电影行业发展。
最新回复 (0)

你可以在 登录 or 注册 后,对此帖发表评论!

返回
发新帖