承包商[中文字幕].The.Contractor.2022.BluRay.1080p.DTS-HDMA7.1.x265.10bit-CTRLHD 8.51GB

版主小s 4月前 303

◎译 名 承包商 / 救命缉约(台) / 暴力行动 / 契约者 / 孤佣兵(港) / Violence of Action

◎片 名 The Contractor

◎年 代 2022

◎产 地 美国

◎类 别 动作 / 惊悚

◎语 言 英语

◎上映日期 2022-04-01(美国)

◎IMDb链接 https://www.imdb.com/title/tt10323676/

◎豆瓣评分 5.9/10 (5030人评价)

◎豆瓣链接 https://movie.douban.com/subject/33442722/

◎片 长 103分钟

◎导 演 塔里克·萨利赫 Tarik Saleh (id:1296510)

◎编 剧 J·P·戴维斯 J.P. Davis (id:1314254)

◎演 员 克里斯·派恩 Chris Pine (id:1053621)

基弗·萨瑟兰 Kiefer Sutherland (id:1053575)

本·福斯特 Ben Foster (id:1040512)

吉莉安·雅各布斯 Gillian Jacobs (id:1274992)

埃迪·马森 Eddie Marsan (id:1291072)

泰特·弗莱彻 Tait Fletcher (id:1389967)

弗罗里安·穆特鲁 Florian Munteanu (id:1403708)

法瑞斯·法瑞斯 Fares Fares (id:1045340)

尼娜·霍斯 Nina Hoss (id:1009688)

J.D.普拉多 J.D. Pardo (id:1179331)

阿蜜拉·卡萨 Amira Casar (id:1045238)

亚力克桑杰·麦沃洛夫 Alexej Manvelov (id:1353382)

马修·马什 Matthew Marsh (id:1120042)

泰娜·拉欣 Tyner Rushing (id:1395028)

帕蒂·舍尔哈斯 Patti Schellhaas (id:1395930)

乔治·皮斯特拉努 George Pistereanu (id:1367289)

科里·斯科特·艾伦 Cory Scott Allen (id:1360689)

里贾纳·陈婷 Regina Ting Chen (id:1357977)

蒂莫西·卡尔 Timothy Carr (id:1392730)

金 King (id:1334780)

山德·托马斯 Sander Thomas (id:1398085)

杰克琳·怀特 Jaclyn White (id:1440513)

◎简 介

神秘契约背后隐藏的危机,原来是一场精心策划的致命阴谋。身处异国孤军奋战,该如何杀出重围、活着回家?

故事讲述被迫从海军陆战队退伍后,詹姆斯·里德(克里斯·派恩 饰)加入了一个准军事组织来维持生计。第一次执行任务时,里德就在东欧遭到追捕。他必须努力活到足够长的时间才能回家,并找出背叛他的人的真正动机。

  1. ##### MediaInfo ######

  2. General

  3. Unique ID : 302499395238122730306695916686445929991 (0xE39343AC1A06C871B04661321CA86607)

  4. Complete name : The.Contractor.2022.BluRay.1080p.DTS-HDMA7.1.x265.10bit-CTRLHD.mkv

  5. Format : Matroska

  6. Format version : Version 4

  7. File size : 8.51 GiB

  8. Duration : 1 h 43 min

  9. Overall bit rate mode : Variable

  10. Overall bit rate : 11.8 Mb/s

  11. Encoded date : UTC 2022-05-29 02:07:55

  12. Writing application : mkvmerge v62.0.0 ('Apollo') 64-bit

  13. Writing library : libebml v1.4.2 + libmatroska v1.6.4

  14. Video

  15. ID : 1

  16. Format : HEVC

  17. Format/Info : High Efficiency Video Coding

  18. Format profile : Main 10@L4@Main

  19. Codec ID : V_MPEGH/ISO/HEVC

  20. Duration : 1 h 43 min

  21. Bit rate : 7 109 kb/s

  22. Width : 1 920 pixels

  23. Height : 804 pixels

  24. Display aspect ratio : 2.40:1

  25. Frame rate mode : Constant

  26. Frame rate : 23.976 (23976/1000/53354) FPS

  27. Color space : YUV

  28. Chroma subsampling : 4:2:0

  29. Bit depth : 10 bits

  30. Bits/(Pixel*Frame) : 0.192

  31. Stream size : 5.13 GiB (60%)

  32. Writing library : x265 3.5+10-82786fccc:[Windows][MSVC 1929][64 bit] 10bit

  33. Encoding settings : cpuid=533541111039 / frame-threads=5 / numa-pools=36,36 / wpp / no-pmode / no-pme / no-psnr / no-ssim / log-level=2 / input-csp=1 / input-res=1920x804 / interlace=0 / total-frames=0 / level-idc=0 / high-tier=1 / uhd-bd=0 / ref=6 / no-allow-non-conformance / repeat-headers / annexb / no-aud / no-eob / no-eos / no-hrd / info / hash=0 / no-temporal-layers / no-open-gop / min-keyint=23 / keyint=250 / gop-lookahead=0 / bframes=8 / b-adapt=2 / b-pyramid / bframe-bias=0 / rc-lookahead=24 / lookahead-slices=5 / NTMzNTQ=uuDQuD2mJt9fsCf / scenecut=40 / hist-scenecut=0 / radl=0 / no-splice / no-intra-refresh / ctu=64 / min-cu-size=8 / no-rect / no-amp / max-tu-size=32 / tu-inter-depth=1 / tu-intra-depth=1 / limit-tu=0 / rdoq-level=0 / dynamic-rd=0.00 / no-ssim-rd / signhide / no-tskip / nr-intra=0 / nr-inter=0 / no-constrained-intra / no-strong-intra-smoothing / max-merge=3 / limit-refs=1 / no-limit-modes / me=2 / subme=7 / merange=48 / temporal-mvp / no-frame-dup / no-hme / weightp / weightb / no-analyze-src-pics / deblock=0:0 / sao / no-sao-non-deblock / rd=4 / selective-sao=4 / early-skip / rskip / no-fast-intra / no-tskip-fast / no-cu-lossless / b-intra / no-splitrd-skip / rdpenalty=0 / psy-rd=2.00 / psy-rdoq=0.00 / no-rd-refine / no-lossless / cbqpoffs=0 / crqpoffs=0 / rc=crf / crf=16.0 / qcomp=0.60 / qpstep=4 / stats-write=0 / stats-read=0 / ipratio=1.40 / pbratio=1.30 / aq-mode=3 / aq-strength=1.00 / cutree / zone-count=0 / no-strict-cbr / qg-size=32 / no-rc-grain / qpmax=69 / qpmin=0 / no-const-vbv / sar=0 / overscan=0 / videoformat=5 / range=0 / colorprim=2 / transfer=2 / colormatrix=2 / chromaloc=0 / display-window=0 / cll=0,0 / min-luma=0 / max-luma=1023 / log2-max-poc-lsb=8 / vui-timing-info / vui-hrd-info / slices=1 / no-opt-qp-pps / no-opt-ref-list-length-pps / no-multi-pass-opt-rps / scenecut-bias=0.05 / hist-threshold=0.03 / no-opt-cu-delta-qp / aq-motion / no-hdr10 / no-hdr10-opt / no-dhdr10-opt / no-idr-recovery-sei / analysis-reuse-level=0 / analysis-save-reuse-level=0 / analysis-load-reuse-level=0 / scale-factor=0 / refine-intra=0 / refine-inter=0 / refine-mv=1 / refine-ctu-distortion=0 / no-limit-sao / ctu-info=0 / no-lowpass-dct / refine-analysis-type=0 / copy-pic=1 / max-ausize-factor=1.0 / no-dynamic-refine / no-single-sei / no-hevc-aq / no-svt / no-field / qp-adaptation-range=1.00 / scenecut-aware-qp=0conformance-window-offsets / right=0 / bottom=0 / NTMzNTQ= / decoder-max-rate=0 / no-vbv-live-multi-pass

  34. Default : Yes

  35. Forced : No

  36. Audio

  37. ID : 2

  38. Format : DTS XLL

  39. Format/Info : Digital Theater Systems

  40. Commercial name : DTS-HD Master Audio

  41. Codec ID : A_DTS

  42. Duration : 1 h 43 min

  43. Bit rate mode : Variable

  44. Bit rate : 4 627 kb/s

  45. Channel(s) : 8 channels

  46. Channel layout : C L R LFE Lb Rb Lss Rss

  47. Sampling rate : 48.0 kHz

  48. Frame rate : 93.750 FPS (512 SPF)

  49. Bit depth : 24 bits

  50. Compression mode : Lossless

  51. Stream size : 3.34 GiB (39%)

  52. Language : English

  53. Default : Yes

  54. Forced : No

  55. Text #1

  56. ID : 3

  57. Format : PGS

  58. Muxing mode : zlib

  59. Codec ID : S_HDMV/PGS

  60. Codec ID/Info : Picture based subtitle format used on BDs/HD-DVDs

  61. Duration : 1 h 36 min

  62. Bit rate : 16.5 kb/s

  63. Count of elements : 1635

  64. Stream size : 11.4 MiB (0%)

  65. Language : Chinese

  66. Default : Yes

  67. Forced : No

  68. Text #2

  69. ID : 4

  70. Format : PGS

  71. Muxing mode : zlib

  72. Codec ID : S_HDMV/PGS

  73. Codec ID/Info : Picture based subtitle format used on BDs/HD-DVDs

  74. Duration : 1 h 36 min

  75. Bit rate : 16.8 kb/s

  76. Count of elements : 1635

  77. Stream size : 11.6 MiB (0%)

  78. Language : Chinese

  79. Default : Yes

  80. Forced : No

  81. Text #3

  82. ID : 5

  83. Format : PGS

  84. Muxing mode : zlib

  85. Codec ID : S_HDMV/PGS

  86. Codec ID/Info : Picture based subtitle format used on BDs/HD-DVDs

  87. Duration : 1 h 36 min

  88. Bit rate : 31.0 kb/s

  89. Count of elements : 1635

  90. Stream size : 21.4 MiB (0%)

  91. Language : Chinese

  92. Default : Yes

  93. Forced : No

  94. Text #4

  95. ID : 6

  96. Format : PGS

  97. Muxing mode : zlib

  98. Codec ID : S_HDMV/PGS

  99. Codec ID/Info : Picture based subtitle format used on BDs/HD-DVDs

  100. Duration : 1 h 36 min

  101. Bit rate : 31.2 kb/s

  102. Count of elements : 1635

  103. Stream size : 21.6 MiB (0%)

  104. Language : Chinese

  105. Default : Yes

  106. Forced : No

  107. Text #5

  108. ID : 7

  109. Format : PGS

  110. Muxing mode : zlib

  111. Codec ID : S_HDMV/PGS

  112. Codec ID/Info : Picture based subtitle format used on BDs/HD-DVDs

  113. Duration : 1 h 36 min

  114. Bit rate : 23.6 kb/s

  115. Count of elements : 1594

  116. Stream size : 16.4 MiB (0%)

  117. Language : English

  118. Default : Yes

  119. Forced : No

  120. Menu

  121. 00:00:00.000 : en:第 01 章

  122. 00:08:33.179 : en:第 02 章

  123. 00:15:19.043 : en:第 03 章

  124. 00:21:55.564 : en:第 04 章

  125. 00:28:52.856 : en:第 05 章

  126. 00:36:15.882 : en:第 06 章

  127. 00:46:04.595 : en:第 07 章

  128. 00:53:05.099 : en:第 08 章

  129. 00:59:15.343 : en:第 09 章

  130. 01:07:16.032 : en:第 10 章

  131. 01:13:30.406 : en:第 11 章

  132. 01:22:28.235 : en:第 12 章

  133. 01:30:48.234 : en:第 13 章

  134. 01:37:43.066 : en:第 14 章


复制代码


TAGS 动作 惊悚 /

磁力链:
  • magnet:?xt=urn:btih:98BB8128E2EE19C0AD10F8BB06FC022933024D67
上传的附件:
BT9527电影天堂 1、BT9527电影天堂提供的BT文件均来源于互联网抓取,只供网友学习交流、技术提升使用。
2、我们遵守BitTorrent点对点协议原则,任何版权问题请联系原资源发布商,我们不处理任何版权纠纷,谢谢!如有争议请联系邮箱:BT9527#hotmail.com(#换成@)
3、如果您发现某页面或地址有错误,请联系站长邮箱BT9527#hotmail.com(#换成@),我们会尽快处理。您的热心是对BT9527电影天堂最大的支持。
4、本站建议去正规影院观看电影以支持电影行业发展。
最新回复 (0)

你可以在 登录 or 注册 后,对此帖发表评论!

返回