清道夫:布局[中文字幕].Ray.Donovan.The.Movie.2022.2160p.SDR.UHD.BluRay.DTS.x265-10bit-ENTHD 7.63GB

版主小s 4月前 299

◎译 名 清道夫:布局 / 清道夫电影版 / Ray Donovan: The Movie

◎片 名 Ray Donovan

◎年 代 2022

◎产 地 美国

◎类 别 剧情

◎语 言 英语

◎上映日期 2022-01-14(美国)

◎IMDb链接 https://www.imdb.com/title/tt14124268/

◎豆瓣评分 6.4/10 (542人评价)

◎豆瓣链接 https://movie.douban.com/subject/35376733/

◎片 长 100分钟

◎导 演 戴维·霍兰德 David Hollander (id:1184516)

◎编 剧 戴维·霍兰德 David Hollander (id:1184516)

列维·施瑞博尔 Liev Schreiber (id:1027151)

◎演 员 列维·施瑞博尔 Liev Schreiber (id:1027151)

凯瑞斯·多西 Kerris Dorsey (id:1199731)

强·沃特 Jon Voight (id:1013838)

凯瑞·康顿 Kerry Condon (id:1013874)

埃迪·马森 Eddie Marsan (id:1291072)

达什·米霍克 Dash Mihok (id:1018075)

大卫·帕特里克·凯利 David Patrick Kelly (id:1105073)

阿曼达·米夏卡 AJ Michalka (id:1000179)

雪莉·李·拉尔夫 Sheryl Lee Ralph (id:1055136)

普奇·豪尔 Pooch Hall (id:1092764)

克里斯·彼得罗夫斯基 Chris Petrovski (id:1330550)

克里斯托弗·格雷 Christopher Gray (id:1437674)

泰·亚历山大 Tye Alexander (id:1345326)

米克·奥罗克 Mick O'Rourke (id:1375367)

帕特里克·克莱因 Patrick Klein (id:1461045)

Daniel Hirsh Daniel Hirsh (id:1046600)

◎简 介

#好莱坞影讯# 列维·施瑞博尔主演的Showtime剧集《清道夫》将推出电影版!施瑞博尔将回归主演,并将与剧集运作人戴维·霍兰德共同操刀剧本,霍兰德担任该片导演。强·沃特、凯瑞斯·多西也将回归出演。该片故事将承接《清道夫》第七季,米奇继续出手,雷决心在他造成更多屠杀之前找到他并阻止他。该片计划于今年晚些时候在纽约开拍。

  1. ##### MediaInfo ######

  2. General

  3. Unique ID : 124854671203910337854094319872513995405 (0x5DEE228F26DD6B278902D14F1EACF28D)

  4. Complete name : Ray.Donovan.The.Movie.2022.2160p.SDR.UHD.BluRay.DTS.x265-10bit-ENTHD.mkv

  5. Format : Matroska

  6. Format version : Version 4

  7. File size : 7.63 GiB

  8. Duration : 1 h 39 min

  9. Overall bit rate : 10.9 Mb/s

  10. Movie name : Ray Donovan The Movie 2022 2160p SDR UHD BluRay DTS-HD MA 5.1 x265-10bit-HDS

  11. Encoded date : UTC 2022-05-28 01:44:24

  12. Writing application : mkvmerge v67.0.0 ('Under Stars') 64-bit

  13. Writing library : libebml v1.4.2 + libmatroska v1.6.4

  14. Video

  15. ID : 1

  16. Format : HEVC

  17. Format/Info : High Efficiency Video Coding

  18. Format profile : Main 10@L5.1@High

  19. Codec ID : V_MPEGH/ISO/HEVC

  20. Duration : 1 h 39 min

  21. Bit rate : 9 376 kb/s

  22. Width : 3 840 pixels

  23. Height : 1 920 pixels

  24. Display aspect ratio : 2.000

  25. Frame rate mode : Constant

  26. Frame rate : 23.976 (24000/1001/53354) FPS

  27. Color space : YUV

  28. Chroma subsampling : 4:2:0

  29. Bit depth : 10 bits

  30. Bits/(Pixel*Frame) : 0.053

  31. Stream size : 6.54 GiB (86%)

  32. Title : @HDSky

  33. Writing library : x265 - H.265/HEVC codec

  34. Default : Yes

  35. Forced : No

  36. Audio

  37. ID : 2

  38. Format : DTS

  39. Format/Info : Digital Theater Systems

  40. Codec ID : A_DTS

  41. Duration : 1 h 39 min

  42. Bit rate mode : Constant

  43. Bit rate : 1 509 kb/s

  44. Channel(s) : 6 channels

  45. Channel layout : C L R Ls Rs LFE

  46. Sampling rate : 48.0 kHz

  47. Frame rate : 93.750 FPS (512 SPF)

  48. Bit depth : 24 bits

  49. Compression mode : Lossy

  50. Stream size : 1.05 GiB (14%)

  51. Title : English

  52. Language : English

  53. Default : Yes

  54. Forced : No

  55. Text #1

  56. ID : 3

  57. Format : PGS

  58. Muxing mode : zlib

  59. Codec ID : S_HDMV/PGS

  60. Codec ID/Info : Picture based subtitle format used on BDs/HD-DVDs

  61. Duration : 1 h 34 min

  62. Bit rate : 22.4 kb/s

  63. Count of elements : 1681

  64. Stream size : 15.1 MiB (0%)

  65. Title : CHS

  66. Language : Chinese

  67. Default : Yes

  68. Forced : No

  69. Text #2

  70. ID : 4

  71. Format : PGS

  72. Muxing mode : zlib

  73. Codec ID : S_HDMV/PGS

  74. Codec ID/Info : Picture based subtitle format used on BDs/HD-DVDs

  75. Duration : 1 h 34 min

  76. Bit rate : 23.3 kb/s

  77. Count of elements : 1681

  78. Stream size : 15.7 MiB (0%)

  79. Title : CHT

  80. Language : Chinese

  81. Default : Yes

  82. Forced : No

  83. Text #3

  84. ID : 5

  85. Format : PGS

  86. Muxing mode : zlib

  87. Codec ID : S_HDMV/PGS

  88. Codec ID/Info : Picture based subtitle format used on BDs/HD-DVDs

  89. Duration : 1 h 34 min

  90. Bit rate : 34.5 kb/s

  91. Count of elements : 1681

  92. Stream size : 23.3 MiB (0%)

  93. Title : CHS&ENG

  94. Language : Chinese

  95. Default : Yes

  96. Forced : No

  97. Text #4

  98. ID : 6

  99. Format : PGS

  100. Muxing mode : zlib

  101. Codec ID : S_HDMV/PGS

  102. Codec ID/Info : Picture based subtitle format used on BDs/HD-DVDs

  103. Duration : 1 h 34 min

  104. Bit rate : 35.0 kb/s

  105. Count of elements : 1681

  106. Stream size : 23.7 MiB (0%)

  107. Title : CHT&ENG

  108. Language : Chinese

  109. Default : Yes

  110. Forced : No

  111. Menu

  112. 00:00:00.000 : en:第 01 章

  113. 00:09:56.179 : en:第 02 章

  114. 00:20:01.951 : en:第 03 章

  115. 00:30:02.384 : en:第 04 章

  116. 00:40:01.733 : en:第 05 章

  117. 00:50:03.792 : en:第 06 章

  118. 01:00:04.434 : en:第 07 章

  119. 01:10:05.243 : en:第 08 章

  120. 01:20:04.341 : en:第 09 章

  121. 01:30:06.151 : en:第 10 章

  122. 01:37:42.982 : en:第 11 章


复制代码


TAGS 剧情

磁力链:
  • magnet:?xt=urn:btih:1EEAB486E7C9A9D8213D7E6A194E7FFE98AFAB4C
上传的附件:
BT9527电影天堂 1、BT9527电影天堂提供的BT文件均来源于互联网抓取,只供网友学习交流、技术提升使用。
2、我们遵守BitTorrent点对点协议原则,任何版权问题请联系原资源发布商,我们不处理任何版权纠纷,谢谢!如有争议请联系邮箱:BT9527#hotmail.com(#换成@)
3、如果您发现某页面或地址有错误,请联系站长邮箱BT9527#hotmail.com(#换成@),我们会尽快处理。您的热心是对BT9527电影天堂最大的支持。
4、本站建议去正规影院观看电影以支持电影行业发展。
最新回复 (0)

你可以在 登录 or 注册 后,对此帖发表评论!

返回
发新帖