人皮灯笼[国语音轨/简繁英字幕].Human.Lanterns.1982.BluRay.1080p.DTS-HD.MA.2.0.x265.10bit-ALT 5.13GB

版主小s 1月前 308

◎译 名 人皮灯笼 / Human Lanterns

◎片 名 人皮燈籠

◎年 代 1982

◎产 地 中国香港

◎类 别 动作 / 恐怖 / 武侠 / 古装

◎语 言 汉语普通话

◎上映日期 1982-07-14

◎IMDb链接 https://www.imdb.com/title/tt0084586/

◎豆瓣评分 6.3/10 (1490人评价)

◎豆瓣链接 https://movie.douban.com/subject/1478230/

◎片 长 95 分钟

◎导 演 孙仲 Chung Sun (id:1319536)

◎编 剧 孙仲 Chung Sun (id:1319536)

◎演 员 刘永 Anthony Liu (id:1005636)

陈观泰 Kuan Tai Chen (id:1028360)

罗烈 Lieh Lo (id:1012614)

恬妮 Ni Tien (id:1274851)

金天柱 Tien-Chu Chin (id:1417197)

张作舟 Chok Chow Cheung (id:1417191)

闵敏 Man Man (id:1410908)

葛萍 Ping Ko (id:1414682)

王憾尘 Han Chen Wang (id:1413061)

石岗 Sek Gong (id:1432111)

洪新南 Hsin Nan Hung (id:1383214)

姚文基 Man-kei Yiu (id:1435360)

戚毅雄 Ngai-Hung Chik (id:1434745)

吕红 Hung Lu (id:1404094)

江全 Chuen Chiang (id:1422721)

伍元勳 Ng Yuen-Fan (id:1354924)

陈绍佳 Shao-Chia Chen (id:1364463)

林志泰 Chi Tai Lam (id:1433961)

方茹 Ju Fang (id:1420845)

(id:1432112)

王清河 Ching-Ho Wang (id:1077298)

黃志明 Chi-Ming Wong (id:1398969)

沈劳 Lao Shen (id:1110008)

元华 Wah Yuen (id:1050240)

井淼 Miao Ching (id:1034001)

罗莽 Meng Lo (id:1025509)

孙建 Chien Sun (id:1008266)

元彬 Bun Yuen (id:1278657)

邵音音 Yin-Yin Shaw (id:1297367)

陈家奇 Erik Ka-Kei Chan (id:1396090)

夏萍 Ping Ha (id:1029271)

谈瑛 Ying Tan (id:1322874)

艾飞 Ai Fei (id:1356968)

钱似莺 Tsi-Ang Chin (id:1211064)

冯敬文 Ging Man Fung (id:1341397)

林秀君 Hsiu Chun Lin (id:1337696)

楚湘云 Linda Chu (id:1314403)

方逸华 Mona Fong (id:1283933)

邵仁枚 Runme Shaw (id:1319311)

苏振厚 Chen-Hou Su (id:1396088)

陈芬 Chan Fen (id:1431417)

刘季友 Chi-Yu Liu (id:1377466)

吴绪清 Hsu-Ching Wu (id:1354216)

唐佳 Chia Tang (id:1015544)

彭雁联 Yen-Lien Peng (id:1330723)

◎简 介

凤凰城内谭富(陈观泰 饰)与龙帅(刘永 饰)两人家资殷实,武林中也颇有名望,几年来两家暗中互相较劲,不时在城中掀起波澜。一年一度的赛灯会临近,龙帅为胜过谭富寻访制灯名匠,经人指点发现名匠居然是七年前的仇人赵春方(罗烈 饰),当年龙、赵二人争夺美女金娘,赵春方不敌龙帅眼看金娘嫁为人妇,自己额头更被留下屈辱性的伤疤。

赵春方假意应承龙帅,暗地中却开始实施复仇计划。赵春方以骷髅面具掩面掳走谭富亲妹,龙帅情人以及金娘,按照人皮灯笼的传说剥去这些女子的皮肤制灯。同时挑拨谭、龙两家关系借刀杀人,谭富忍无可忍对龙帅痛下杀手,二人赌命搏杀之际,终于明白遭人算计。龙帅次日在街上听到的无心之言,让赵春方的嫌疑愈发明显……

  1. ##### MediaInfo ######

  2. General

  3. Unique ID : 26263543174509823694759398647103306330 (0x13C22CA71657ECCB7552CFD4D5F93A5A)

  4. Complete name : Human.Lanterns.1982.BluRay.1080p.DTS-HD.MA.2.0.x265.10bit-ALT.mkv

  5. Format : Matroska

  6. Format version : Version 4

  7. File size : 5.13 GiB

  8. Duration : 1 h 39 min

  9. Overall bit rate mode : Variable

  10. Overall bit rate : 7 414 kb/s

  11. Encoded date : UTC 2022-05-28 08:56:21

  12. Writing application : mkvmerge v49.0.0 ('Sick Of Losing Soulmates') 64-bit

  13. Writing library : libebml v1.4.0 + libmatroska v1.6.1

  14. Video

  15. ID : 1

  16. Format : HEVC

  17. Format/Info : High Efficiency Video Coding

  18. Format profile : Main 10@L5.1@High

  19. Codec ID : V_MPEGH/ISO/HEVC

  20. Duration : 1 h 39 min

  21. Bit rate : 5 734 kb/s

  22. Width : 1 920 pixels

  23. Height : 818 pixels

  24. Display aspect ratio : 2.35:1

  25. Frame rate mode : Constant

  26. Frame rate : 23.976 (24000/1001/53354) FPS

  27. Color space : YUV

  28. Chroma subsampling : 4:2:0

  29. Bit depth : 10 bits

  30. Bits/(Pixel*Frame) : 0.152

  31. Stream size : 3.97 GiB (77%)

  32. Title : HEVC, x265Main10@L5.1@High, 24/1.001 fps @ 5734 kbps

  33. Writing library : x265 3.5+36-1f2c8da77:[Windows][GCC 11.2.0][64 bit] 10bit

  34. Encoding settings : cpuid=533541111039 / frame-threads=4 / numa-pools=16 / wpp / no-pmode / no-pme / no-psnr / no-ssim / log-level=2 / input-csp=1 / input-res=1920x818 / interlace=0 / total-frames=142470 / level-idc=51 / high-tier=1 / uhd-bd=0 / ref=5 / no-allow-non-conformance / no-repeat-headers / annexb / no-aud / no-eob / no-eos / no-hrd / info / hash=0 / no-temporal-layers / open-gop / min-keyint=24 / keyint=240 / gop-lookahead=0 / bframes=6 / b-adapt=2 / b-pyramid / bframe-bias=0 / rc-lookahead=40 / lookahead-slices=0 / NTMzNTQ=uuDQuD2mJt9fsCf / scenecut=40 / no-hist-scenecut / radl=0 / no-splice / no-intra-refresh / ctu=32 / min-cu-size=8 / no-rect / no-amp / max-tu-size=32 / tu-inter-depth=3 / tu-intra-depth=3 / limit-tu=4 / rdoq-level=2 / dynamic-rd=0.00 / no-ssim-rd / signhide / no-tskip / nr-intra=0 / nr-inter=0 / no-constrained-intra / no-strong-intra-smoothing / max-merge=4 / limit-refs=1 / limit-modes / me=3 / subme=4 / merange=25 / temporal-mvp / no-frame-dup / no-hme / weightp / weightb / no-analyze-src-pics / deblock=-3:-3 / no-sao / no-sao-non-deblock / rd=6 / selective-sao=0 / no-early-skip / rskip / no-fast-intra / no-tskip-fast / no-cu-lossless / b-intra / no-splitrd-skip / rdpenalty=0 / psy-rd=2.00 / psy-rdoq=1.00 / no-rd-refine / no-lossless / cbqpoffs=-2 / crqpoffs=-2 / rc=crf / crf=17.0 / qcomp=0.65 / qpstep=4 / stats-write=0 / stats-read=0 / vbv-maxrate=80000 / vbv-bufsize=80000 / vbv-init=0.9 / min-vbv-fullness=50.0 / max-vbv-fullness=80.0 / crf-max=0.0 / crf-min=0.0 / ipratio=1.40 / pbratio=1.30 / aq-mode=2 / aq-strength=0.85 / cutree / zone-count=0 / no-strict-cbr / qg-size=32 / no-rc-grain / qpmax=69 / qpmin=0 / no-const-vbv / sar=1 / overscan=0 / videoformat=5 / range=0 / colorprim=1 / transfer=1 / colormatrix=1 / chromaloc=0 / display-window=0 / cll=0,0 / min-luma=0 / max-luma=1023 / log2-max-poc-lsb=8 / vui-timing-info / vui-hrd-info / slices=1 / no-opt-qp-pps / no-opt-ref-list-length-pps / no-multi-pass-opt-rps / scenecut-bias=0.05 / hist-threshold=0.03 / no-opt-cu-delta-qp / no-aq-motion / no-hdr10 / no-hdr10-opt / no-dhdr10-opt / no-idr-recovery-sei / analysis-reuse-level=0 / analysis-save-reuse-level=0 / analysis-load-reuse-level=0 / scale-factor=0 / refine-intra=0 / refine-inter=0 / refine-mv=1 / refine-ctu-distortion=0 / no-limit-sao / ctu-info=0 / no-lowpass-dct / refine-analysis-type=0 / copy-pic=1 / max-ausize-factor=1.0 / no-dynamic-refine / no-single-sei / no-hevc-aq / no-svt / no-field / qp-adaptation-range=1.00 / scenecut-aware-qp=0conformance-window-offsets / right=0 / bottom=0 / NTMzNTQ= / decoder-max-rate=0 / no-vbv-live-multi-pass

  35. Language : English

  36. Default : Yes

  37. Forced : No

  38. Color range : Limited

  39. Color primaries : BT.709

  40. Transfer characteristics : BT.709

  41. Matrix coefficients : BT.709

  42. Audio

  43. ID : 2

  44. Format : DTS XLL

  45. Format/Info : Digital Theater Systems

  46. Commercial name : DTS-HD Master Audio

  47. Codec ID : A_DTS

  48. Duration : 1 h 39 min

  49. Bit rate mode : Variable

  50. Bit rate : 1 605 kb/s

  51. Channel(s) : 2 channels

  52. Channel layout : L R

  53. Sampling rate : 48.0 kHz

  54. Frame rate : 93.750 FPS (512 SPF)

  55. Bit depth : 24 bits

  56. Compression mode : Lossless

  57. Stream size : 1.11 GiB (22%)

  58. Title : Mandarin DTS-HD Master Audio 2.0 @ 1606 kbps

  59. Language : Chinese

  60. Default : Yes

  61. Forced : No

  62. Text #1

  63. ID : 3

  64. Format : PGS

  65. Codec ID : S_HDMV/PGS

  66. Codec ID/Info : Picture based subtitle format used on BDs/HD-DVDs

  67. Duration : 1 h 38 min

  68. Bit rate : 25.2 kb/s

  69. Count of elements : 1646

  70. Stream size : 17.7 MiB (0%)

  71. Title : Eng/SUP

  72. Language : English

  73. Default : No

  74. Forced : No

  75. Text #2

  76. ID : 4

  77. Format : PGS

  78. Codec ID : S_HDMV/PGS

  79. Codec ID/Info : Picture based subtitle format used on BDs/HD-DVDs

  80. Duration : 1 h 35 min

  81. Bit rate : 23.3 kb/s

  82. Count of elements : 1295

  83. Stream size : 15.9 MiB (0%)

  84. Title : Chs/SUP 简体

  85. Language : Chinese

  86. Default : Yes

  87. Forced : No

  88. Text #3

  89. ID : 5

  90. Format : PGS

  91. Codec ID : S_HDMV/PGS

  92. Codec ID/Info : Picture based subtitle format used on BDs/HD-DVDs

  93. Duration : 1 h 35 min

  94. Bit rate : 24.2 kb/s

  95. Count of elements : 1295

  96. Stream size : 16.6 MiB (0%)

  97. Title : Cht/SUP 繁体

  98. Language : Chinese

  99. Default : No

  100. Forced : No

  101. Menu

  102. 00:00:00.000 : en:第 01 章

  103. 00:03:38.760 : en:第 02 章

  104. 00:11:44.996 : en:第 03 章

  105. 00:17:36.764 : en:第 04 章

  106. 00:26:46.730 : en:第 05 章

  107. 00:33:43.063 : en:第 06 章

  108. 00:37:12.105 : en:第 07 章

  109. 00:49:06.443 : en:第 08 章

  110. 01:05:36.516 : en:第 09 章

  111. 01:15:12.466 : en:第 10 章

  112. 01:20:57.394 : en:第 11 章

  113. 01:31:48.920 : en:第 12 章

  114. 01:35:16.252 : en:第 13 章


复制代码


TAGS 武侠 动作 恐怖 古装 /

磁力链:
  • magnet:?xt=urn:btih:0B23419321F7E5C601FCE6CB6406650E05A1694E
上传的附件:
BT9527电影天堂 1、BT9527电影天堂提供的BT文件均来源于互联网抓取,只供网友学习交流、技术提升使用。
2、我们遵守BitTorrent点对点协议原则,任何版权问题请联系原资源发布商,我们不处理任何版权纠纷,谢谢!如有争议请联系邮箱:BT9527#hotmail.com(#换成@)
3、如果您发现某页面或地址有错误,请联系站长邮箱BT9527#hotmail.com(#换成@),我们会尽快处理。您的热心是对BT9527电影天堂最大的支持。
4、本站建议去正规影院观看电影以支持电影行业发展。
最新回复 (0)

你可以在 登录 or 注册 后,对此帖发表评论!

返回
发新帖