灭门[国粤英多音轨/简繁英字幕].Bad.Blood.2010.BluRay.1080p.2Audio.DTS-HD.MA.5.1.x265.10bit-ALT 11.33GB

版主小s 1月前 430

◎译 名 灭门 / Bad Blood

◎片 名 滅門

◎年 代 2010

◎产 地 中国香港

◎类 别 动作 / 惊悚

◎语 言 粤语 / 汉语普通话

◎上映日期 2010-01-21

◎IMDb链接 https://www.imdb.com/title/tt1465499/

◎豆瓣评分 4.4/10 (5478人评价)

◎豆瓣链接 https://movie.douban.com/subject/3829512/

◎片 长 95分钟

◎导 演 罗守耀 Dennis Law (id:1289547)

◎编 剧 罗守耀 Dennis Law (id:1289547)

◎演 员 任达华 Simon Yam (id:1031194)

安志杰 Andy On (id:1045364)

廖碧儿 Bernice Jan Liu (id:1215093)

蒋璐霞 Luxia Jiang (id:1313597)

陈惠敏 Wai-Man Chan (id:1012699)

张文慈 Pinky Cheung (id:1028399)

熊欣欣 Xinxin Xiong (id:1033090)

张兆辉 Siu-Fai Cheung (id:1005843)

卢惠光 Ken Lo (id:1032633)

崔桐侥 Tongyao Cui (id:1406502)

韩春 Chun Han (id:1418677)

黄燕强 Wong Yin Keung (id:1471598)

王天林 Tian-lin Wang (id:1041074)

林雪 Suet Lam (id:1274279)

黎诺懿 Lok-Yi Lai (id:1274905)

萧洪 Siu Hung (id:1471721)

罗守耀 Dennis Law (id:1289547)

韦启良 Yee-Leung Wai (id:1300261)

邱礼涛 Herman Yau (id:1274313)

钟炜钊 Wai Chiu Chung (id:1280783)

冯君孟 William Fung (id:1284331)

王庆生 Ken Wong (id:1330605)

李忠志 Chung Chi Li (id:1014763)

◎简 介

香港社团“同联顺”众成员赴大陆购买制作伪钞所用电版,归程时其当家骆祥安(张兆辉 饰)为公安捉获,并最终被执行死刑,一时间骆氏遗产的分配成社团中骨干阿富(任达华 饰)、阿雄等人瞩目的焦点。岂料在黄律师(林雪 饰)主持下,遗产尽归骆祥安妻弟丽萍(廖碧儿 饰)、骆祥福所有。阿富等人大感不平,各怀鬼胎,而骆家庶出的儿子阿牛(安志杰 饰)却对这一切看似漠不关心,每日只与哑妹(蒋璐霞 饰)苦练搏击。不久,黄律师意外身亡,接着骆祥富也死于汽车炸弹,为避免死于遗产争夺,骆丽萍将所有财产在遗嘱中留给慈善组织后,又找到阿牛,以亲情说服他为自己铲除社团各位干部,于是阿牛与哑妹两人迅速向社团发难,连场血战中,遗产争夺战的幕后主使人渐渐浮出水面……

  1. ##### MediaInfo ######

  2. General

  3. Unique ID : 298585866961297724274303633992904445777 (0xE0A18BD4C1B31462ED23E29DF7558F51)

  4. Complete name : Bad.Blood.2010.BluRay.1080p.2Audio.DTS-HD.MA.5.1.x265.10bit-ALT.mkv

  5. Format : Matroska

  6. Format version : Version 4

  7. File size : 11.3 GiB

  8. Duration : 1 h 34 min

  9. Overall bit rate mode : Variable

  10. Overall bit rate : 17.1 Mb/s

  11. Encoded date : UTC 2022-05-28 10:02:11

  12. Writing application : mkvmerge v49.0.0 ('Sick Of Losing Soulmates') 64-bit

  13. Writing library : libebml v1.4.0 + libmatroska v1.6.1

  14. Video

  15. ID : 1

  16. Format : HEVC

  17. Format/Info : High Efficiency Video Coding

  18. Format profile : Main 10@L5.1@High

  19. Codec ID : V_MPEGH/ISO/HEVC

  20. Duration : 1 h 34 min

  21. Bit rate : 14.2 Mb/s

  22. Width : 1 920 pixels

  23. Height : 1 036 pixels

  24. Display aspect ratio : 1.85:1

  25. Frame rate mode : Constant

  26. Frame rate : 24.000 FPS

  27. Color space : YUV

  28. Chroma subsampling : 4:2:0

  29. Bit depth : 10 bits

  30. Bits/(Pixel*Frame) : 0.298

  31. Stream size : 9.39 GiB (83%)

  32. Title : HEVC, x265Main10@L5.1@High, 24 fps @ 14221 kbps

  33. Writing library : x265 3.5+36-1f2c8da77:[Windows][GCC 11.2.0][64 bit] 10bit

  34. Encoding settings : cpuid=533541111039 / frame-threads=4 / numa-pools=16 / wpp / no-pmode / no-pme / no-psnr / no-ssim / log-level=2 / input-csp=1 / input-res=1920x1036 / interlace=0 / total-frames=136187 / level-idc=51 / high-tier=1 / uhd-bd=0 / ref=5 / no-allow-non-conformance / no-repeat-headers / annexb / no-aud / no-eob / no-eos / no-hrd / info / hash=0 / no-temporal-layers / open-gop / min-keyint=24 / keyint=240 / gop-lookahead=0 / bframes=6 / b-adapt=2 / b-pyramid / bframe-bias=0 / rc-lookahead=40 / lookahead-slices=0 / NTMzNTQ=uuDQuD2mJt9fsCf / scenecut=40 / no-hist-scenecut / radl=0 / no-splice / no-intra-refresh / ctu=32 / min-cu-size=8 / no-rect / no-amp / max-tu-size=32 / tu-inter-depth=3 / tu-intra-depth=3 / limit-tu=4 / rdoq-level=2 / dynamic-rd=0.00 / no-ssim-rd / signhide / no-tskip / nr-intra=0 / nr-inter=0 / no-constrained-intra / no-strong-intra-smoothing / max-merge=4 / limit-refs=1 / limit-modes / me=3 / subme=4 / merange=25 / temporal-mvp / no-frame-dup / no-hme / weightp / weightb / no-analyze-src-pics / deblock=-3:-3 / no-sao / no-sao-non-deblock / rd=6 / selective-sao=0 / no-early-skip / rskip / no-fast-intra / no-tskip-fast / no-cu-lossless / b-intra / no-splitrd-skip / rdpenalty=0 / psy-rd=2.00 / psy-rdoq=1.00 / no-rd-refine / no-lossless / cbqpoffs=-2 / crqpoffs=-2 / rc=crf / crf=19.5 / qcomp=0.65 / qpstep=4 / stats-write=0 / stats-read=0 / vbv-maxrate=80000 / vbv-bufsize=80000 / vbv-init=0.9 / min-vbv-fullness=50.0 / max-vbv-fullness=80.0 / crf-max=0.0 / crf-min=0.0 / ipratio=1.40 / pbratio=1.30 / aq-mode=2 / aq-strength=0.85 / cutree / zone-count=0 / no-strict-cbr / qg-size=32 / no-rc-grain / qpmax=69 / qpmin=0 / no-const-vbv / sar=1 / overscan=0 / videoformat=5 / range=0 / colorprim=1 / transfer=1 / colormatrix=1 / chromaloc=0 / display-window=0 / cll=0,0 / min-luma=0 / max-luma=1023 / log2-max-poc-lsb=8 / vui-timing-info / vui-hrd-info / slices=1 / no-opt-qp-pps / no-opt-ref-list-length-pps / no-multi-pass-opt-rps / scenecut-bias=0.05 / hist-threshold=0.03 / no-opt-cu-delta-qp / no-aq-motion / no-hdr10 / no-hdr10-opt / no-dhdr10-opt / no-idr-recovery-sei / analysis-reuse-level=0 / analysis-save-reuse-level=0 / analysis-load-reuse-level=0 / scale-factor=0 / refine-intra=0 / refine-inter=0 / refine-mv=1 / refine-ctu-distortion=0 / no-limit-sao / ctu-info=0 / no-lowpass-dct / refine-analysis-type=0 / copy-pic=1 / max-ausize-factor=1.0 / no-dynamic-refine / no-single-sei / no-hevc-aq / no-svt / no-field / qp-adaptation-range=1.00 / scenecut-aware-qp=0conformance-window-offsets / right=0 / bottom=0 / NTMzNTQ= / decoder-max-rate=0 / no-vbv-live-multi-pass

  35. Language : English

  36. Default : Yes

  37. Forced : No

  38. Color range : Limited

  39. Color primaries : BT.709

  40. Transfer characteristics : BT.709

  41. Matrix coefficients : BT.709

  42. Audio #1

  43. ID : 2

  44. Format : DTS XLL

  45. Format/Info : Digital Theater Systems

  46. Commercial name : DTS-HD Master Audio

  47. Codec ID : A_DTS

  48. Duration : 1 h 34 min

  49. Bit rate mode : Variable

  50. Bit rate : 2 228 kb/s

  51. Channel(s) : 6 channels

  52. Channel layout : C L R Ls Rs LFE

  53. Sampling rate : 48.0 kHz

  54. Frame rate : 93.750 FPS (512 SPF)

  55. Bit depth : 16 bits

  56. Compression mode : Lossless

  57. Stream size : 1.47 GiB (13%)

  58. Title : Cantonese DTS-HD Master Audio 5.1 @ 2228 kbps

  59. Language : Chinese

  60. Default : Yes

  61. Forced : No

  62. Audio #2

  63. ID : 3

  64. Format : AC-3

  65. Format/Info : Audio Coding 3

  66. Commercial name : Dolby Digital

  67. Codec ID : A_AC3

  68. Duration : 1 h 34 min

  69. Bit rate mode : Constant

  70. Bit rate : 640 kb/s

  71. Channel(s) : 6 channels

  72. Channel layout : L R C LFE Ls Rs

  73. Sampling rate : 48.0 kHz

  74. Frame rate : 31.250 FPS (1536 SPF)

  75. Compression mode : Lossy

  76. Stream size : 433 MiB (4%)

  77. Title : Mandarin Dolby Digital Audio 5.1 @ 640 kbps

  78. Language : Chinese

  79. Service kind : Complete Main

  80. Default : No

  81. Forced : No

  82. Text #1

  83. ID : 4

  84. Format : PGS

  85. Codec ID : S_HDMV/PGS

  86. Codec ID/Info : Picture based subtitle format used on BDs/HD-DVDs

  87. Duration : 1 h 30 min

  88. Bit rate : 18.5 kb/s

  89. Count of elements : 1436

  90. Stream size : 12.0 MiB (0%)

  91. Title : Cht/SUP 原盘繁体

  92. Language : Chinese

  93. Default : No

  94. Forced : No

  95. Text #2

  96. ID : 5

  97. Format : PGS

  98. Codec ID : S_HDMV/PGS

  99. Codec ID/Info : Picture based subtitle format used on BDs/HD-DVDs

  100. Duration : 1 h 30 min

  101. Bit rate : 17.9 kb/s

  102. Count of elements : 1436

  103. Stream size : 11.6 MiB (0%)

  104. Title : Chs/SUP 原盘简体

  105. Language : Chinese

  106. Default : Yes

  107. Forced : No

  108. Text #3

  109. ID : 6

  110. Format : PGS

  111. Codec ID : S_HDMV/PGS

  112. Codec ID/Info : Picture based subtitle format used on BDs/HD-DVDs

  113. Duration : 1 h 30 min

  114. Bit rate : 20.5 kb/s

  115. Count of elements : 1450

  116. Stream size : 13.2 MiB (0%)

  117. Title : Eng/SUP

  118. Language : English

  119. Default : No

  120. Forced : No

  121. Menu

  122. 00:00:00.000 : en:第 01 章

  123. 00:07:08.708 : en:第 02 章

  124. 00:11:12.708 : en:第 03 章

  125. 00:16:45.250 : en:第 04 章

  126. 00:22:40.083 : en:第 05 章

  127. 00:27:06.625 : en:第 06 章

  128. 00:30:38.792 : en:第 07 章

  129. 00:34:59.625 : en:第 08 章

  130. 00:42:06.750 : en:第 09 章

  131. 00:46:57.708 : en:第 10 章

  132. 00:53:53.208 : en:第 11 章

  133. 00:58:40.208 : en:第 12 章

  134. 01:04:05.917 : en:第 13 章

  135. 01:07:31.000 : en:第 14 章

  136. 01:13:19.292 : en:第 15 章

  137. 01:19:15.792 : en:第 16 章

  138. 01:25:28.042 : en:第 17 章

  139. 01:32:28.167 : en:第 18 章


复制代码


TAGS 动作 惊悚 /

磁力链:
  • magnet:?xt=urn:btih:BDAEBA67B989C614601367E2FD22742707069308
上传的附件:
BT9527电影天堂 1、BT9527电影天堂提供的BT文件均来源于互联网抓取,只供网友学习交流、技术提升使用。
2、我们遵守BitTorrent点对点协议原则,任何版权问题请联系原资源发布商,我们不处理任何版权纠纷,谢谢!如有争议请联系邮箱:BT9527#hotmail.com(#换成@)
3、如果您发现某页面或地址有错误,请联系站长邮箱BT9527#hotmail.com(#换成@),我们会尽快处理。您的热心是对BT9527电影天堂最大的支持。
4、本站建议去正规影院观看电影以支持电影行业发展。
最新回复 (0)

你可以在 登录 or 注册 后,对此帖发表评论!

返回
发新帖