原罪[简繁英字幕].Original.Sin.2001.UNRATED.BluRay.1080p.x265.10bit-MiniHD 3.28GB

版主小s 1月前 723



◎译  名 原罪 / 性罪 / 枕边陷阱 / 激情叛侣 / 激情伴侣
◎片  名 Original Sin
◎年  代 2001
◎产  地 法国 / 美国
◎类  别 剧情 / 爱情 / 悬疑 / 情色
◎语  言 英语 / 西班牙语 / 日语 / 拉丁语 / 德语
◎上映日期 2001-07-11(法国) / 2001-08-03(美国)
◎IMDb链接 https://www.imdb.com/title/tt0218922/
◎豆瓣评分 7.4/10 (69389人评价)
◎豆瓣链接 https://movie.douban.com/subject/1302303/
◎片  长 116分钟
◎导  演 迈克尔·克里斯托弗 Michael Cristofer (id:1005219)
◎编  剧 迈克尔·克里斯托弗 Michael Cristofer (id:1005219)
       康奈尔·伍尔里奇 Cornell Woolrich (id:1037181)
◎演  员 安东尼奥·班德拉斯 Antonio Banderas (id:1022582)
       安吉丽娜·朱莉 Angelina Jolie (id:1054447)
       托马斯·简 Thomas Jane (id:1031816)
       杰克·汤普森 Jack Thompson (id:1152253)
       Allison Mackie Allison Mackie (id:1123176)
       乔安·普林格尔 Joan Pringle (id:1135464)
       詹姆斯·哈文 James Haven (id:1045024)
       格里高利·伊齐恩 Gregory Itzin (id:1000205)
       莉萨·欧文 Lisa Owen (id:1293754)
       Fernando Torre Laphame Fernando Torre Laphame (id:1160510)
       小佩德罗·阿门达里斯 Pedro Armendáriz Jr. (id:1002848)
       Daniel Martínez Daniel Martínez (id:1291185)
       法尔内西奥·德贝尔纳尔 Farnesio de Bernal (id:1281980)
       朱力安·塞奇威克 Julian Sedgwick (id:1137507)
       Adrian Makala Adrian Makala (id:1117628)
       Guy De Saint Cyr Guy De Saint Cyr (id:1082082)
       Osami Kawano Osami Kawano (id:1288256)
       马里奥·伊万·马丁内斯 Mario Iván Martínez (id:1291192)
       Sheldon Abend Sheldon Abend (id:1021405)
       丹尼斯·蒂诺威 Denise Di Novi (id:1282363)
       Kate Guinzburg Kate Guinzburg (id:1011183)
       Michael S. Glick Michael S. Glick (id:1284974)
       泰伦斯·布兰查德 Terence Blanchard (id:1032676)
       罗德里戈·普列托 Rodrigo Prieto (id:1276623)
       埃里克·A·西尔斯 Eric A. Sears (id:1297119)
       Junie Lowry-Johnson Junie Lowry-Johnson (id:1290388)
       Libby Goldstein Libby Goldstein (id:1285079)
       大卫·J·博姆巴 David J. Bomba (id:1278919)
       贝丝·A·鲁比诺 Beth A. Rubino (id:1296281)
       John R. Jensen John R. Jensen (id:1287690)
       唐娜·莎库卡 Donna Zakowska (id:1301618)
       科琳·卡拉甘 Colleen Callaghan (id:1279892)
       Linda De Andrea Linda De Andrea (id:1281974)
       妮娜·斯玛兹 Nena Smarz (id:1297819)
       珍妮·施雷耶 Janeen Schreyer (id:1296963)
       Sally Sue Beisel Sally Sue Beisel (id:1278236)
       Mary Ellen Woods Mary Ellen Woods (id:1301249)
       托德·瓦兹里 Todd Vaziri (id:1299925)
        Charles Darby (id:1231142)
       吉姆·戈尔曼 Jim Gorman (id:1285203)
       Patrick Murphy Patrick Murphy (id:1129780)
       雷·麦金太尔 Ray McIntyre Jr. (id:1291625)

◎简  介
  在十九世纪的古巴,当地咖啡业富商路易斯(安东尼奥?班德拉斯 饰)要迎娶一个邮购新娘。路易斯从未见过这名美国女子茱莉亚(安吉丽娜?朱丽 饰),当他在码头首次见到这位妻子的时候,茱莉亚的美貌令他倾心。但他不知道这位美丽新娘满脑诡计。                                    
                                新婚生活让路易斯幸福无比,他以为幸福日子可以一直这样持续下去。路易斯发现他的妻子并不是他想象中那样单纯。茱莉亚隐藏着一连串的谎言,最终目的都是路易斯的巨大财富。                                    
                                看似幸福的生活,就此暗藏了许多暗涌与变数。

  1. ##### MediaInfo ######
  2. General
  3. Unique ID                                : 250911441013319375397377762669855478309 (0xBCC3C927CF28645488C8FC8AEB979225)
  4. Complete name                            : Original.Sin.2001.UNRATED.BluRay.1080p.x265.10bit-MiniHD.mkv
  5. Format                                   : Matroska
  6. Format version                           : Version 4
  7. File size                                : 3.28 GiB
  8. Duration                                 : 1 h 58 min
  9. Overall bit rate                         : 3 969 kb/s
  10. Encoded date                             : UTC 2017-12-16 08:41:34
  11. Writing application                      : mkvmerge v18.0.0 ('Apricity') 64-bit
  12. Writing library                          : libebml v1.3.5 + libmatroska v1.4.8
  13. Video
  14. ID                                       : 1
  15. Format                                   : HEVC
  16. Format/Info                              : High Efficiency Video Coding
  17. Format profile                           : Main 10@L4@Main
  18. Codec ID                                 : V_MPEGH/ISO/HEVC
  19. Duration                                 : 1 h 58 min
  20. Bit rate                                 : 3 283 kb/s
  21. Width                                    : 1 920 pixels
  22. Height                                   : 816 pixels
  23. Display aspect ratio                     : 2.35:1
  24. Frame rate mode                          : Constant
  25. Frame rate                               : 23.976 (24000/1001/53354) FPS
  26. Color space                              : YUV
  27. Chroma subsampling                       : 4:2:0
  28. Bit depth                                : 10 bits
  29. Bits/(Pixel*Frame)                       : 0.087
  30. Stream size                              : 2.72 GiB (83%)
  31. Writing library                          : x265 2.6+14-f09f3b4a2115:[Windows][MSVC 1912][64 bit] 10bit
  32. Encoding settings                        : cpuid=533541173503 / frame-threads=2 / numa-pools=4 / wpp / no-pmode / no-pme / no-psnr / no-ssim / log-level=2 / input-csp=1 / input-res=1920x816 / interlace=0 / total-frames=0 / level-idc=0 / high-tier=1 / uhd-bd=0 / ref=5 / no-allow-non-conformance / no-repeat-headers / annexb / no-aud / no-hrd / info / hash=0 / no-temporal-layers / no-open-gop / min-keyint=1 / keyint=360 / gop-lookahead=0 / bframes=8 / b-adapt=2 / b-pyramid / bframe-bias=0 / rc-lookahead=60 / lookahead-slices=4 / NTMzNTQ=uuDQuD2mJt9fsCf / scenecut=40 / no-intra-refresh / ctu=32 / min-cu-size=8 / rect / no-amp / max-tu-size=16 / tu-inter-depth=2 / tu-intra-depth=2 / limit-tu=4 / rdoq-level=1 / dynamic-rd=0.00 / ssim-rd / signhide / no-tskip / nr-intra=0 / nr-inter=0 / no-constrained-intra / no-strong-intra-smoothing / max-merge=3 / limit-refs=2 / limit-modes / me=3 / subme=5 / merange=25 / temporal-mvp / weightp / weightb / no-analyze-src-pics / deblock=-1:-1 / no-sao / no-sao-non-deblock / rd=4 / no-early-skip / rskip / no-fast-intra / no-tskip-fast / no-cu-lossless / b-intra / no-splitrd-skip / rdpenalty=1 / psy-rd=0.00 / psy-rdoq=5.00 / no-rd-refine / analysis-reuse-mode=0 / no-lossless / cbqpoffs=-2 / crqpoffs=-2 / rc=crf / crf=19.0 / qcomp=0.65 / qpstep=4 / stats-write=0 / stats-read=0 / ipratio=1.40 / pbratio=1.30 / aq-mode=2 / aq-strength=0.90 / cutree / zone-count=0 / no-strict-cbr / qg-size=16 / no-rc-grain / qpmax=69 / qpmin=0 / no-const-vbv / sar=0 / overscan=0 / videoformat=5 / range=0 / colorprim=1 / transfer=2 / colormatrix=2 / chromaloc=0 / display-window=0 / max-cll=0,0 / min-luma=0 / max-luma=1023 / log2-max-poc-lsb=8 / vui-timing-info / vui-hrd-info / slices=1 / no-opt-qp-pps / no-opt-ref-list-length-pps / no-multi-pass-opt-rps / scenecut-bias=0.05 / no-opt-cu-delta-qp / no-aq-motion / no-hdr / no-hdr-opt / no-dhdr10-opt / analysis-reuse-level=5 / scale-factor=0 / refine-intra=0 / refine-inter=0 / refine-mv=0 / no-limit-sao / ctu-info=0 / no-lowpass-dct / refine-mv-type=0 / copy-pic=1
  33. Default                                  : Yes
  34. Forced                                   : No
  35. Color range                              : Limited
  36. Color primaries                          : BT.709
  37. Audio
  38. ID                                       : 2
  39. Format                                   : AC-3
  40. Format/Info                              : Audio Coding 3
  41. Commercial name                          : Dolby Digital
  42. Codec ID                                 : A_AC3
  43. Duration                                 : 1 h 58 min
  44. Bit rate mode                            : Constant
  45. Bit rate                                 : 640 kb/s
  46. Channel(s)                               : 6 channels
  47. Channel layout                           : L R C LFE Ls Rs
  48. Sampling rate                            : 48.0 kHz
  49. Frame rate                               : 31.250 FPS (1536 SPF)
  50. Compression mode                         : Lossy
  51. Stream size                              : 542 MiB (16%)
  52. Service kind                             : Complete Main
  53. Default                                  : Yes
  54. Forced                                   : No
  55. Text #1
  56. ID                                       : 3
  57. Format                                   : PGS
  58. Muxing mode                              : zlib
  59. Codec ID                                 : S_HDMV/PGS
  60. Codec ID/Info                            : Picture based subtitle format used on BDs/HD-DVDs
  61. Duration                                 : 1 h 56 min
  62. Bit rate                                 : 32.2 kb/s
  63. Count of elements                        : 3056
  64. Stream size                              : 26.8 MiB (1%)
  65. Title                                    : 英文字幕
  66. Language                                 : English
  67. Default                                  : Yes
  68. Forced                                   : No
  69. Text #2
  70. ID                                       : 4
  71. Format                                   : PGS
  72. Muxing mode                              : zlib
  73. Codec ID                                 : S_HDMV/PGS
  74. Codec ID/Info                            : Picture based subtitle format used on BDs/HD-DVDs
  75. Duration                                 : 1 h 54 min
  76. Bit rate                                 : 15.6 kb/s
  77. Count of elements                        : 2362
  78. Stream size                              : 12.8 MiB (0%)
  79. Title                                    : 简体字幕
  80. Language                                 : Chinese
  81. Default                                  : No
  82. Forced                                   : No
  83. Text #3
  84. ID                                       : 5
  85. Format                                   : PGS
  86. Muxing mode                              : zlib
  87. Codec ID                                 : S_HDMV/PGS
  88. Codec ID/Info                            : Picture based subtitle format used on BDs/HD-DVDs
  89. Duration                                 : 1 h 54 min
  90. Bit rate                                 : 17.4 kb/s
  91. Count of elements                        : 2375
  92. Stream size                              : 14.2 MiB (0%)
  93. Title                                    : 简英字幕
  94. Language                                 : Chinese
  95. Default                                  : No
  96. Forced                                   : No
  97. Text #4
  98. ID                                       : 6
  99. Format                                   : PGS
  100. Muxing mode                              : zlib
  101. Codec ID                                 : S_HDMV/PGS
  102. Codec ID/Info                            : Picture based subtitle format used on BDs/HD-DVDs
  103. Duration                                 : 1 h 54 min
  104. Bit rate                                 : 15.9 kb/s
  105. Count of elements                        : 2362
  106. Stream size                              : 13.0 MiB (0%)
  107. Title                                    : 繁体字幕
  108. Language                                 : Chinese
  109. Default                                  : No
  110. Forced                                   : No
  111. Text #5
  112. ID                                       : 7
  113. Format                                   : PGS
  114. Muxing mode                              : zlib
  115. Codec ID                                 : S_HDMV/PGS
  116. Codec ID/Info                            : Picture based subtitle format used on BDs/HD-DVDs
  117. Duration                                 : 1 h 54 min
  118. Bit rate                                 : 17.8 kb/s
  119. Count of elements                        : 2375
  120. Stream size                              : 14.6 MiB (0%)
  121. Title                                    : 繁英字幕
  122. Language                                 : Chinese
  123. Default                                  : No
  124. Forced                                   : No
  125. Menu
  126. 00:00:00.000                             : en:00:00:00.000
  127. 00:04:58.507                             : en:00:04:58.507
  128. 00:12:59.028                             : en:00:12:59.028
  129. 00:19:18.491                             : en:00:19:18.491
  130. 00:24:01.565                             : en:00:24:01.565
  131. 00:29:08.121                             : en:00:29:08.121
  132. 00:37:55.231                             : en:00:37:55.231
  133. 00:47:23.549                             : en:00:47:23.549
  134. 00:52:00.826                             : en:00:52:00.826
  135. 01:01:30.854                             : en:01:01:30.854
  136. 01:06:53.801                             : en:01:06:53.801
  137. 01:16:35.424                             : en:01:16:35.424
  138. 01:21:17.247                             : en:01:21:17.247
  139. 01:28:55.747                             : en:01:28:55.747
  140. 01:38:02.919                             : en:01:38:02.919
  141. 01:48:40.472                             : en:01:48:40.472
复制代码




TAGS 剧情 情色 悬疑 爱情 /

磁力链:
  • magnet:?xt=urn:btih:EE135D6D4E25C73E01609C749AA514E88F711694
上传的附件:
BT9527电影天堂 1、BT9527电影天堂提供的BT文件均来源于互联网抓取,只供网友学习交流、技术提升使用。
2、我们遵守BitTorrent点对点协议原则,任何版权问题请联系原资源发布商,我们不处理任何版权纠纷,谢谢!如有争议请联系邮箱:BT9527#hotmail.com(#换成@)
3、如果您发现某页面或地址有错误,请联系站长邮箱BT9527#hotmail.com(#换成@),我们会尽快处理。您的热心是对BT9527电影天堂最大的支持。
4、本站建议去正规影院观看电影以支持电影行业发展。
最新回复 (0)

你可以在 登录 or 注册 后,对此帖发表评论!

返回
发新帖