华尔街之狼[中英字幕].The.Wolf.of.Wall.Street.2013.BluRay.1080p.x265.10bit-MiniHD 8.61GB

版主小s 1月前 164



◎译  名 华尔街之狼 / 华尔街狼人(港)
◎片  名 The Wolf of Wall Street
◎年  代 2013
◎产  地 美国
◎类  别 剧情 / 传记 / 犯罪
◎语  言 英语 / 法语
◎上映日期 2013-12-17(纽约首映) / 2013-12-25(美国)
◎IMDb链接 https://www.imdb.com/title/tt0993846/
◎豆瓣评分 8.0/10 (362710人评价)
◎豆瓣链接 https://movie.douban.com/subject/2997076/
◎片  长 180分钟
◎导  演 马丁·斯科塞斯 Martin Scorsese (id:1054425)
◎编  剧 特伦斯·温特 Terence Winter (id:1323478)
       乔丹·贝尔福特 Jordan Belfort (id:1337076)
◎演  员 莱昂纳多·迪卡普里奥 Leonardo DiCaprio (id:1041029)
       乔纳·希尔 Jonah Hill (id:1036302)
       玛格特·罗比 Margot Robbie (id:1272303)
       马修·麦康纳 Matthew McConaughey (id:1040511)
       凯尔·钱德勒 Kyle Chandler (id:1049607)
       罗伯·莱纳 Rob Reiner (id:1031903)
       乔·博恩瑟 Jon Bernthal (id:1049679)
       让·杜雅尔丹 Jean Dujardin (id:1018213)
       克里斯汀·米利欧缇 Cristin Milioti (id:1236978)
       卡塔莉娜·凯斯 Katarina Cas (id:1316627)
       斯派克·琼斯 Spike Jonze (id:1027831)
       乔恩·费儒 Jon Favreau (id:1027164)
       托马斯·米德蒂奇 Thomas Middleditch (id:1339676)
       阿雅·卡什 Aya Cash (id:1331388)
       谢伊·惠格姆 Shea Whigham (id:1165173)
       乔安娜·林莉 Joanna Lumley (id:1048173)
       肯尼斯·崔 Kenneth Choi (id:1027505)
       布莱特·舒伏德 Bret Shuford (id:1315010)
       瓦德·霍尔顿 Ward Horton (id:1208048)
       伊桑·苏普利 Ethan Suplee (id:1017960)
       艾米莉·特里梅因 Emily Tremaine (id:1337661)
       杰克·霍夫曼 Jake Hoffman (id:1032175)
       乔丹·贝尔福特 Jordan Belfort (id:1337076)
       爱德华·赫曼 Edward Herrmann (id:1010634)
       Ashley Blankenship Ashley Blankenship (id:1366558)
       斯蒂芬妮·库尔特祖巴 Stephanie Kurtzuba (id:1345007)
       克斯汀·埃伯索尔 Christine Ebersole (id:1055425)
       P·J·伯恩 P.J. Byrne (id:1321106)
       弗兰·勒博维茨 Fran Lebowitz (id:1108404)
       泰德·格里芬 Ted Griffin (id:1036884)
       罗伯特·克洛赫赛 Robert Clohessy (id:1070249)
       里兹万·曼吉 Rizwan Manji (id:1115896)
       凯瑟琳·科廷 Catherine Curtin (id:1333381)
       唐尼·科沙瓦茨 Donnie Keshawarz (id:1216455)
       亨利·泽布罗夫斯基 Henry Zebrowski (id:1337780)
       J.C.麦肯泽 J.C. MacKenzie (id:1319852)
       布莱恩·萨卡 Brian Sacca (id:1337779)
       迈克尔·布莱恩·弗兰奇 Michael Bryan French (id:1322701)
       阿什莉·阿特金森 Ashlie Atkinson (id:1205955)
       Kellen Moriarty Kellen Moriarty (id:1386458)
       Sandra Nelson Sandra Nelson (id:1127303)
       特雷西·弗里德曼 Tracy Friedman (id:1371484)
       迪马·艾特肯 Deema Aitken (id:1371293)
       何塞·拉蒙·罗萨里奥 José Ramón Rosario (id:1365144)
       丹尼·A·阿贝卡瑟尔 Danny A. Abeckaser (id:1429565)
       约翰·贝尔曼 John Behlmann (id:1435422)
       布莱恩·伯顿 Bryan Burton (id:1364370)
       Sky Watersend Sky Watersend (id:1337692)
       莱昂纳多·迪卡普里奥 Leonardo DiCaprio (id:1041029)
       马丁·斯科塞斯 Martin Scorsese (id:1054425)
       艾玛·特林格·科斯考夫 Emma Tillinger Koskoff (id:1337359)
       Riza Aziz Riza Aziz (id:1337358)
       乔伊·麦克法兰 Joey McFarland (id:1337360)
       霍华德·肖 Howard Shore (id:1027953)
       罗德里戈·普列托 Rodrigo Prieto (id:1276623)
       塞尔玛·斯昆梅克 Thelma Schoonmaker (id:1014210)
       桑迪·鲍威尔 Sandy Powell (id:1128632)

◎简  介
  在危机四伏的投资界,掌管史崔顿·奥克蒙公司的乔丹·贝尔福特(莱昂纳多·迪卡普里奥 Leonardo DiCaprio 饰)生活侈靡、实力雄厚。1987年,22岁的乔丹进入罗斯柴尔德公司,从接线员做起,在高级经纪人马克(马修·麦康纳 Matthew McConaughey 饰)指点下,进入了股票经纪人充满毒品和欲望的世界,半年后因“黑色星期一”,乔丹转投靠贩卖“便士股票”的小公司,凭借巧舌如簧获得成功,与邻居唐尼(乔纳·希尔 Jonah Hill 饰)和一班朋友另立门户,游走在灰色地带获利颇丰,获称“华尔街之狼”,然而,FBI已经开始留意他……                                    
                                本片根据前华尔街股票经纪人乔丹·贝尔福特的个人自传《华尔街之狼》改编。

◎获奖情况 (共54项)
  第86届奥斯卡金像奖 (2014)
  最佳影片(提名)
  最佳导演(提名)
   └──马丁·斯科塞斯 (id:1054425)
  最佳男主角(提名)
   └──莱昂纳多·迪卡普里奥 (id:1041029)
  最佳男配角(提名)
   └──乔纳·希尔 (id:1036302)
  最佳改编剧本(提名)
   └──特伦斯·温特 (id:1323478)

  第71届金球奖 (2014)
  电影类 最佳音乐/喜剧片(提名)
  电影类 音乐/喜剧片最佳男主角
   └──莱昂纳多·迪卡普里奥 (id:1041029)

  第23届MTV电影奖 (2014)
  MTV电影奖 年度电影(提名)
  MTV电影奖 最佳喜剧表演(提名)
   └──乔纳·希尔 (id:1036302)
  MTV电影奖 最佳男演员(提名)
   └──莱昂纳多·迪卡普里奥 (id:1041029)
  MTV电影奖 突破表演奖(提名)
   └──玛格特·罗比 (id:1272303)
  MTV电影奖 最佳银幕搭档(提名)
  MTV电影奖 最佳赤膊表演(提名)
   └──莱昂纳多·迪卡普里奥 (id:1041029)
  MTV电影奖 最目瞪口呆场面(提名)
  MTV电影奖 最佳音乐场景(提名)
   └──莱昂纳多·迪卡普里奥 (id:1041029)

  第66届美国导演工会奖 (2014)
  最佳电影导演(提名)
   └──马丁·斯科塞斯 (id:1054425)

  第66届美国编剧工会奖 (2014)
  电影奖 最佳改编剧本(提名)
   └──特伦斯·温特 (id:1323478)

  第25届美国制片人工会奖 (2014)
  最佳电影制片人奖(提名)

  第64届美国剪辑工会奖 (2014)
  音乐/喜剧片最佳剪辑(提名)
   └──塞尔玛·斯昆梅克 (id:1014210)

  第12届美国视觉效果协会奖 (2014)
  最佳电影辅助视觉效果(提名)

  第85届美国国家评论协会奖 (2014)
  最佳改编剧本
  年度佳片

  第19届美国评论家选择电影奖 (2014)
  最佳影片(提名)
  最佳导演(提名)
   └──马丁·斯科塞斯 (id:1054425)
  最佳群戏(提名)
  喜剧片最佳男主角
   └──莱昂纳多·迪卡普里奥 (id:1041029)
  最佳改编剧本(提名)
   └──特伦斯·温特 (id:1323478)
  最佳剪辑(提名)
   └──塞尔玛·斯昆梅克 (id:1014210)

  第14届美国电影学会奖 (2013)
  年度佳片

  第18届金卫星奖 (2014)
  电影部门 最佳剧情片(提名)
  电影部门 最佳导演(提名)
   └──马丁·斯科塞斯 (id:1054425)
  电影部门 剧情片最佳男主角(提名)
   └──莱昂纳多·迪卡普里奥 (id:1041029)
  电影部门 最佳改编剧本(提名)
   └──特伦斯·温特 (id:1323478)
  电影部门 最佳剪辑
   └──塞尔玛·斯昆梅克 (id:1014210)

  第12届华盛顿影评人协会奖 (2013)
  最佳导演(提名)
   └──马丁·斯科塞斯 (id:1054425)
  最佳男主角(提名)
   └──莱昂纳多·迪卡普里奥 (id:1041029)
  最佳改编剧本(提名)
  最佳剪辑(提名)

  第34届伦敦影评人协会奖 (2014)
  年度电影(提名)
  年度导演(提名)
   └──马丁·斯科塞斯 (id:1054425)
  年度编剧(提名)
   └──特伦斯·温特 (id:1323478)
  年度男主角(提名)
   └──莱昂纳多·迪卡普里奥 (id:1041029)

  第34届波士顿影评人协会奖 (2013)
  最佳影片(提名)
  最佳导演(提名)
   └──马丁·斯科塞斯 (id:1054425)
  最佳男主角(提名)
   └──莱昂纳多·迪卡普里奥 (id:1041029)
  最佳剧本(提名)
   └──特伦斯·温特 (id:1323478)
  最佳剪辑(提名)
   └──塞尔玛·斯昆梅克 (id:1014210)
  最佳音乐(提名)
   └──霍华德·肖 (id:1027953)

  第22届东南影评人协会奖 (2013)
  十大佳片

  第1届豆瓣电影年度榜单 (2014)
  最受关注的非院线电影(提名)

  第4届豆瓣电影鑫像奖 (2014)
  鑫豆单元 最佳影片(外语)(提名)
  鑫豆单元 最佳导演(外语)(提名)
   └──马丁·斯科塞斯 (id:1054425)
  鑫豆单元 最佳男演员(外语)
   └──莱昂纳多·迪卡普里奥 (id:1041029)
  鑫豆单元 最佳喜剧片(提名)

  1. ##### MediaInfo ######
  2. General
  3. Unique ID                                : 234098096850459553864621319596627728809 (0xB01DA74978B521E796C10C3A6D1C19A9)
  4. Complete name                            : The.Wolf.of.Wall.Street.2013.BluRay.1080p.x265.10bit-MiniHD.mkv
  5. Format                                   : Matroska
  6. Format version                           : Version 4
  7. File size                                : 8.61 GiB
  8. Duration                                 : 2 h 59 min
  9. Overall bit rate                         : 6 854 kb/s
  10. Encoded date                             : UTC 2017-07-12 09:52:57
  11. Writing application                      : mkvmerge v11.0.0 ('Alive') 64bit
  12. Writing library                          : libebml v1.3.4 + libmatroska v1.4.5
  13. Video
  14. ID                                       : 1
  15. Format                                   : HEVC
  16. Format/Info                              : High Efficiency Video Coding
  17. Codec ID                                 : V_MPEGH/ISO/HEVC
  18. Duration                                 : 2 h 59 min
  19. Bit rate                                 : 5 854 kb/s
  20. Width                                    : 1 920 pixels
  21. Height                                   : 800 pixels
  22. Display aspect ratio                     : 2.40:1
  23. Frame rate mode                          : Constant
  24. Frame rate                               : 23.976 (24000/1001/53354) FPS
  25. Bits/(Pixel*Frame)                       : 0.159
  26. Stream size                              : 7.36 GiB (85%)
  27. Default                                  : Yes
  28. Forced                                   : No
  29. Audio
  30. ID                                       : 2
  31. Format                                   : AC-3
  32. Format/Info                              : Audio Coding 3
  33. Commercial name                          : Dolby Digital
  34. Codec ID                                 : A_AC3
  35. Duration                                 : 2 h 59 min
  36. Bit rate mode                            : Constant
  37. Bit rate                                 : 640 kb/s
  38. Channel(s)                               : 6 channels
  39. Channel layout                           : L R C LFE Ls Rs
  40. Sampling rate                            : 48.0 kHz
  41. Frame rate                               : 31.250 FPS (1536 SPF)
  42. Compression mode                         : Lossy
  43. Stream size                              : 823 MiB (9%)
  44. Language                                 : English
  45. Service kind                             : Complete Main
  46. Default                                  : Yes
  47. Forced                                   : No
  48. Text #1
  49. ID                                       : 3
  50. Format                                   : PGS
  51. Muxing mode                              : zlib
  52. Codec ID                                 : S_HDMV/PGS
  53. Codec ID/Info                            : Picture based subtitle format used on BDs/HD-DVDs
  54. Duration                                 : 2 h 52 min
  55. Bit rate                                 : 19.4 kb/s
  56. Count of elements                        : 7460
  57. Stream size                              : 23.8 MiB (0%)
  58. Language                                 : English
  59. Default                                  : Yes
  60. Forced                                   : No
  61. Text #2
  62. ID                                       : 4
  63. Format                                   : PGS
  64. Muxing mode                              : zlib
  65. Codec ID                                 : S_HDMV/PGS
  66. Codec ID/Info                            : Picture based subtitle format used on BDs/HD-DVDs
  67. Duration                                 : 2 h 53 min
  68. Bit rate                                 : 21.0 kb/s
  69. Count of elements                        : 8294
  70. Stream size                              : 26.1 MiB (0%)
  71. Language                                 : English
  72. Default                                  : No
  73. Forced                                   : No
  74. Text #3
  75. ID                                       : 5
  76. Format                                   : PGS
  77. Muxing mode                              : zlib
  78. Codec ID                                 : S_HDMV/PGS
  79. Codec ID/Info                            : Picture based subtitle format used on BDs/HD-DVDs
  80. Duration                                 : 2 h 52 min
  81. Bit rate                                 : 23.7 kb/s
  82. Count of elements                        : 4860
  83. Stream size                              : 29.2 MiB (0%)
  84. Language                                 : Chinese
  85. Default                                  : No
  86. Forced                                   : No
  87. Text #4
  88. ID                                       : 6
  89. Format                                   : PGS
  90. Muxing mode                              : zlib
  91. Codec ID                                 : S_HDMV/PGS
  92. Codec ID/Info                            : Picture based subtitle format used on BDs/HD-DVDs
  93. Duration                                 : 2 h 52 min
  94. Bit rate                                 : 18.3 kb/s
  95. Count of elements                        : 4860
  96. Stream size                              : 22.6 MiB (0%)
  97. Language                                 : Chinese
  98. Default                                  : No
  99. Forced                                   : No
  100. Text #5
  101. ID                                       : 7
  102. Format                                   : PGS
  103. Muxing mode                              : zlib
  104. Codec ID                                 : S_HDMV/PGS
  105. Codec ID/Info                            : Picture based subtitle format used on BDs/HD-DVDs
  106. Duration                                 : 2 h 52 min
  107. Bit rate                                 : 39.8 kb/s
  108. Count of elements                        : 4860
  109. Stream size                              : 49.0 MiB (1%)
  110. Language                                 : Chinese
  111. Default                                  : No
  112. Forced                                   : No
  113. Text #6
  114. ID                                       : 8
  115. Format                                   : PGS
  116. Muxing mode                              : zlib
  117. Codec ID                                 : S_HDMV/PGS
  118. Codec ID/Info                            : Picture based subtitle format used on BDs/HD-DVDs
  119. Duration                                 : 2 h 52 min
  120. Bit rate                                 : 34.3 kb/s
  121. Count of elements                        : 4860
  122. Stream size                              : 42.3 MiB (0%)
  123. Language                                 : Chinese
  124. Default                                  : No
  125. Forced                                   : No
  126. Text #7
  127. ID                                       : 9
  128. Format                                   : PGS
  129. Muxing mode                              : zlib
  130. Codec ID                                 : S_HDMV/PGS
  131. Codec ID/Info                            : Picture based subtitle format used on BDs/HD-DVDs
  132. Duration                                 : 2 h 52 min
  133. Bit rate                                 : 23.7 kb/s
  134. Count of elements                        : 4860
  135. Stream size                              : 29.2 MiB (0%)
  136. Language                                 : Chinese
  137. Default                                  : No
  138. Forced                                   : No
  139. Text #8
  140. ID                                       : 10
  141. Format                                   : PGS
  142. Muxing mode                              : zlib
  143. Codec ID                                 : S_HDMV/PGS
  144. Codec ID/Info                            : Picture based subtitle format used on BDs/HD-DVDs
  145. Duration                                 : 2 h 52 min
  146. Bit rate                                 : 18.3 kb/s
  147. Count of elements                        : 4860
  148. Stream size                              : 22.6 MiB (0%)
  149. Language                                 : Chinese
  150. Default                                  : No
  151. Forced                                   : No
  152. Text #9
  153. ID                                       : 11
  154. Format                                   : PGS
  155. Muxing mode                              : zlib
  156. Codec ID                                 : S_HDMV/PGS
  157. Codec ID/Info                            : Picture based subtitle format used on BDs/HD-DVDs
  158. Duration                                 : 2 h 52 min
  159. Bit rate                                 : 39.8 kb/s
  160. Count of elements                        : 4860
  161. Stream size                              : 49.0 MiB (1%)
  162. Language                                 : Chinese
  163. Default                                  : No
  164. Forced                                   : No
  165. Text #10
  166. ID                                       : 12
  167. Format                                   : PGS
  168. Muxing mode                              : zlib
  169. Codec ID                                 : S_HDMV/PGS
  170. Codec ID/Info                            : Picture based subtitle format used on BDs/HD-DVDs
  171. Duration                                 : 2 h 52 min
  172. Bit rate                                 : 34.3 kb/s
  173. Count of elements                        : 4860
  174. Stream size                              : 42.3 MiB (0%)
  175. Language                                 : Chinese
  176. Default                                  : No
  177. Forced                                   : No
  178. Text #11
  179. ID                                       : 13
  180. Format                                   : PGS
  181. Muxing mode                              : zlib
  182. Codec ID                                 : S_HDMV/PGS
  183. Codec ID/Info                            : Picture based subtitle format used on BDs/HD-DVDs
  184. Duration                                 : 2 h 52 min
  185. Bit rate                                 : 27.5 kb/s
  186. Count of elements                        : 6923
  187. Stream size                              : 33.9 MiB (0%)
  188. Language                                 : Chinese
  189. Default                                  : No
  190. Forced                                   : No
  191. Text #12
  192. ID                                       : 14
  193. Format                                   : PGS
  194. Muxing mode                              : zlib
  195. Codec ID                                 : S_HDMV/PGS
  196. Codec ID/Info                            : Picture based subtitle format used on BDs/HD-DVDs
  197. Duration                                 : 2 h 52 min
  198. Bit rate                                 : 22.2 kb/s
  199. Count of elements                        : 6923
  200. Stream size                              : 27.4 MiB (0%)
  201. Language                                 : Chinese
  202. Default                                  : No
  203. Forced                                   : No
  204. Text #13
  205. ID                                       : 15
  206. Format                                   : PGS
  207. Muxing mode                              : zlib
  208. Codec ID                                 : S_HDMV/PGS
  209. Codec ID/Info                            : Picture based subtitle format used on BDs/HD-DVDs
  210. Duration                                 : 2 h 52 min
  211. Bit rate                                 : 27.5 kb/s
  212. Count of elements                        : 6923
  213. Stream size                              : 33.9 MiB (0%)
  214. Language                                 : Chinese
  215. Default                                  : No
  216. Forced                                   : No
  217. Text #14
  218. ID                                       : 16
  219. Format                                   : PGS
  220. Muxing mode                              : zlib
  221. Codec ID                                 : S_HDMV/PGS
  222. Codec ID/Info                            : Picture based subtitle format used on BDs/HD-DVDs
  223. Duration                                 : 2 h 52 min
  224. Bit rate                                 : 22.2 kb/s
  225. Count of elements                        : 6923
  226. Stream size                              : 27.4 MiB (0%)
  227. Language                                 : Chinese
  228. Default                                  : No
  229. Forced                                   : No
  230. Menu
  231. 00:00:00.000                             : en:Chapter 01
  232. 00:07:55.933                             : en:Chapter 02
  233. 00:14:17.857                             : en:Chapter 03
  234. 00:21:31.415                             : en:Chapter 04
  235. 00:32:08.092                             : en:Chapter 05
  236. 00:40:14.495                             : en:Chapter 06
  237. 00:48:33.577                             : en:Chapter 07
  238. 00:55:21.776                             : en:Chapter 08
  239. 01:01:56.045                             : en:Chapter 09
  240. 01:07:00.474                             : en:Chapter 10
  241. 01:11:28.909                             : en:Chapter 11
  242. 01:19:49.868                             : en:Chapter 12
  243. 01:29:06.883                             : en:Chapter 13
  244. 01:37:47.403                             : en:Chapter 14
  245. 01:45:11.930                             : en:Chapter 15
  246. 01:54:39.998                             : en:Chapter 16
  247. 02:03:20.184                             : en:Chapter 17
  248. 02:07:28.015                             : en:Chapter 18
  249. 02:17:12.849                             : en:Chapter 19
  250. 02:25:25.466                             : en:Chapter 20
  251. 02:32:08.619                             : en:Chapter 21
  252. 02:36:38.722                             : en:Chapter 22
  253. 02:44:19.266                             : en:Chapter 23
  254. 02:53:04.290                             : en:Chapter 24
复制代码




TAGS 剧情 犯罪 传记 /

磁力链:
  • magnet:?xt=urn:btih:C62330861C53FA67D6C31969FC8E94175E380A7B
上传的附件:
BT9527电影天堂 1、BT9527电影天堂提供的BT文件均来源于互联网抓取,只供网友学习交流、技术提升使用。
2、我们遵守BitTorrent点对点协议原则,任何版权问题请联系原资源发布商,我们不处理任何版权纠纷,谢谢!如有争议请联系邮箱:BT9527#hotmail.com(#换成@)
3、如果您发现某页面或地址有错误,请联系站长邮箱BT9527#hotmail.com(#换成@),我们会尽快处理。您的热心是对BT9527电影天堂最大的支持。
4、本站建议去正规影院观看电影以支持电影行业发展。
最新回复 (0)

你可以在 登录 or 注册 后,对此帖发表评论!

返回
发新帖