午夜凶铃3(美版)[中英字幕].Rings.2017.BluRay.1080p.x265.10bit-MiniHD 3.74GB

版主小s 4月前 239



◎译  名 午夜凶铃3(美版) / 美版午夜凶铃3 / 回魂凶铃(港) / 七夜怪谭(台) / 新午夜凶铃(美版) / The Ring / The Ring 3 / The Ring 3D
◎片  名 Rings
◎年  代 2017
◎产  地 美国
◎类  别 剧情 / 恐怖
◎语  言 英语
◎上映日期 2017-02-01(法国) / 2017-02-03(美国)
◎IMDb链接 https://www.imdb.com/title/tt0498381/
◎豆瓣评分 5.2/10 (5021人评价)
◎豆瓣链接 https://movie.douban.com/subject/1584991/
◎片  长 102分钟
◎导  演 F·贾维尔·古铁雷斯 F. Javier Gutiérrez (id:1010077)
◎编  剧 大卫·卢卡 David Loucka (id:1367969)
       雅各布·艾伦·埃斯戴斯 Jacob Aaron Estes (id:1050341)
       阿齐瓦·高斯曼 Akiva Goldsman (id:1009507)
       铃木光司 K?ji Suzuki (id:1045626)
◎演  员 玛蒂尔达·鲁茨 Matilda Anna Ingrid Lutz (id:1334637)
       亚历克斯·罗伊 Alex Roe (id:1354219)
       约翰尼·盖尔克奇 Johnny Galecki (id:1044725)
       文森特·多诺费奥 Vincent D'Onofrio (id:1010546)
       艾米·缇加登 Aimee Teegarden (id:1027202)
       邦妮·摩根 Bonnie Morgan (id:1292480)
       查克·大卫·威利斯 Chuck David Willis (id:1367970)
       帕特里克·R·沃克 Patrick R. Walker (id:1367971)
       扎齐·罗伊瑞格 Zach Roerig (id:1032003)
       劳拉·威金斯 Laura Wiggins (id:1244883)
       丽兹·布罗谢 Lizzie Brocheré (id:1000800)
       凯伦·西塞 Karen Ceesay (id:1367972)
       大卫·布莱米 Dave Blamy (id:1367973)
       迈克尔·桑德斯 Mike Sanders (id:1140733)
       兰德尔·泰勒 Randall Taylor (id:1367974)
       吉尔·简·克莱门茨 Jill Jane Clements (id:1367378)
       安德莉亚·鲍威尔 Andrea Powell (id:1056140)
       大卫·多尔夫曼 David Dorfman (id:1282617)
       克里斯·格林 Chris Greene (id:1256571)
       吉尔莫·德尔·托罗 Guillermo del Toro (id:1027182)
       马修·马杰森 Matthew Margeson (id:1019865)

◎简  介
  年轻女孩茱莉娅(玛蒂尔达·鲁茨 Matilda Lutz 饰)和男友霍尔特(阿历克斯·罗 Alex Roe 饰)分隔两地,相互思念。某晚在一个奇怪的梦后,茱莉娅发现霍尔特不见了踪影,视频通话中则有一个疯狂的女子咆哮质问,四下寻找霍尔特的下落。充满担忧的茱莉娅启程前往霍尔特所在的学校,并因缘际会见到了视频中的那个女孩斯盖伊,谁知更因此目睹了斯盖伊离奇的死亡。在此之后,霍尔特出现,他说自己接收了加布里埃尔教授(约翰尼·盖尔克奇 Johnny Galecki 饰)的一个实验,表面上该实验是为了证明人死后灵魂的存在,实则他们是观看那盘受诅咒的录像带,观看者在死亡前将录像转给下一个“替身”,然而死亡者接连出现。                                    
                                就在此时,茱莉娅也观看了这盘恐怖的录像带……

  1. ##### MediaInfo ######
  2. General
  3. Unique ID                                : 176141425329274822906688586440892450157 (0x84839AC3B6F8EEB3815088E23633856D)
  4. Complete name                            : Rings.2017.BluRay.1080p.x265.10bit-MiniHD.mkv
  5. Format                                   : Matroska
  6. Format version                           : Version 4
  7. File size                                : 3.74 GiB
  8. Duration                                 : 1 h 42 min
  9. Overall bit rate                         : 5 241 kb/s
  10. Encoded date                             : UTC 2017-04-28 03:26:37
  11. Writing application                      : mkvmerge v9.7.1 ('Pandemonium') 64bit
  12. Writing library                          : libebml v1.3.4 + libmatroska v1.4.5
  13. Video
  14. ID                                       : 1
  15. Format                                   : HEVC
  16. Format/Info                              : High Efficiency Video Coding
  17. Format profile                           : Main 10@L4@Main
  18. Codec ID                                 : V_MPEGH/ISO/HEVC
  19. Duration                                 : 1 h 42 min
  20. Bit rate                                 : 4 497 kb/s
  21. Width                                    : 1 920 pixels
  22. Height                                   : 1 080 pixels
  23. Display aspect ratio                     : 16:9
  24. Frame rate mode                          : Constant
  25. Frame rate                               : 23.976 (24000/1001/53354) FPS
  26. Color space                              : YUV
  27. Chroma subsampling                       : 4:2:0
  28. Bit depth                                : 10 bits
  29. Bits/(Pixel*Frame)                       : 0.090
  30. Stream size                              : 3.21 GiB (86%)
  31. Writing library                          : x265 2.4+2-5bc5e73760cd:[Windows][GCC 6.3.0][64 bit] 10bit
  32. Encoding settings                        : cpuid=533541173503 / frame-threads=6 / numa-pools=36 / wpp / no-pmode / no-pme / no-psnr / no-ssim / log-level=2 / input-csp=1 / input-res=1920x1080 / interlace=0 / total-frames=147000 / level-idc=0 / high-tier=1 / uhd-bd=0 / ref=5 / no-allow-non-conformance / no-repeat-headers / annexb / no-aud / no-hrd / info / hash=0 / no-temporal-layers / no-open-gop / min-keyint=1 / keyint=360 / bframes=8 / b-adapt=2 / b-pyramid / bframe-bias=0 / rc-lookahead=60 / lookahead-slices=4 / NTMzNTQ=uuDQuD2mJt9fsCf / scenecut=40 / no-intra-refresh / ctu=32 / min-cu-size=8 / rect / no-amp / max-tu-size=16 / tu-inter-depth=2 / tu-intra-depth=2 / limit-tu=4 / rdoq-level=2 / dynamic-rd=0.00 / ssim-rd / signhide / no-tskip / nr-intra=0 / nr-inter=0 / no-constrained-intra / no-strong-intra-smoothing / max-merge=3 / limit-refs=1 / limit-modes / me=3 / subme=5 / merange=25 / temporal-mvp / weightp / weightb / no-analyze-src-pics / deblock=-1:-1 / no-sao / no-sao-non-deblock / rd=4 / no-early-skip / rskip / no-fast-intra / no-tskip-fast / no-cu-lossless / b-intra / rdpenalty=1 / psy-rd=0.00 / psy-rdoq=5.00 / no-rd-refine / analysis-mode=0 / no-lossless / cbqpoffs=-2 / crqpoffs=-2 / rc=crf / crf=19.0 / qcomp=0.70 / qpstep=4 / stats-write=0 / stats-read=0 / ipratio=1.40 / pbratio=1.30 / aq-mode=2 / aq-strength=0.80 / cutree / zone-count=0 / no-strict-cbr / qg-size=16 / no-rc-grain / qpmax=69 / qpmin=0 / sar=0 / overscan=0 / videoformat=5 / range=0 / colorprim=1 / transfer=2 / colormatrix=2 / chromaloc=0 / display-window=0 / max-cll=0,0 / min-luma=0 / max-luma=1023 / log2-max-poc-lsb=8 / vui-timing-info / vui-hrd-info / slices=1 / opt-qp-pps / opt-ref-list-length-pps / no-multi-pass-opt-rps / scenecut-bias=0.05 / no-opt-cu-delta-qp / no-aq-motion / no-hdr / no-hdr-opt / no-dhdr10-opt / refine-level=5 / no-limit-sao
  33. Default                                  : Yes
  34. Forced                                   : No
  35. Color range                              : Limited
  36. Color primaries                          : BT.709
  37. Audio
  38. ID                                       : 2
  39. Format                                   : AC-3
  40. Format/Info                              : Audio Coding 3
  41. Commercial name                          : Dolby Digital
  42. Codec ID                                 : A_AC3
  43. Duration                                 : 1 h 42 min
  44. Bit rate mode                            : Constant
  45. Bit rate                                 : 640 kb/s
  46. Channel(s)                               : 6 channels
  47. Channel layout                           : L R C LFE Ls Rs
  48. Sampling rate                            : 48.0 kHz
  49. Frame rate                               : 31.250 FPS (1536 SPF)
  50. Compression mode                         : Lossy
  51. Stream size                              : 468 MiB (12%)
  52. Language                                 : English
  53. Service kind                             : Complete Main
  54. Default                                  : Yes
  55. Forced                                   : No
  56. Text #1
  57. ID                                       : 3
  58. Format                                   : PGS
  59. Muxing mode                              : zlib
  60. Codec ID                                 : S_HDMV/PGS
  61. Codec ID/Info                            : Picture based subtitle format used on BDs/HD-DVDs
  62. Language                                 : English
  63. Default                                  : Yes
  64. Forced                                   : No
  65. Text #2
  66. ID                                       : 4
  67. Format                                   : PGS
  68. Muxing mode                              : zlib
  69. Codec ID                                 : S_HDMV/PGS
  70. Codec ID/Info                            : Picture based subtitle format used on BDs/HD-DVDs
  71. Language                                 : Chinese
  72. Default                                  : No
  73. Forced                                   : No
  74. Text #3
  75. ID                                       : 5
  76. Format                                   : PGS
  77. Muxing mode                              : zlib
  78. Codec ID                                 : S_HDMV/PGS
  79. Codec ID/Info                            : Picture based subtitle format used on BDs/HD-DVDs
  80. Language                                 : Chinese
  81. Default                                  : No
  82. Forced                                   : No
  83. Text #4
  84. ID                                       : 6
  85. Format                                   : PGS
  86. Muxing mode                              : zlib
  87. Codec ID                                 : S_HDMV/PGS
  88. Codec ID/Info                            : Picture based subtitle format used on BDs/HD-DVDs
  89. Language                                 : Chinese
  90. Default                                  : No
  91. Forced                                   : No
  92. Text #5
  93. ID                                       : 7
  94. Format                                   : PGS
  95. Muxing mode                              : zlib
  96. Codec ID                                 : S_HDMV/PGS
  97. Codec ID/Info                            : Picture based subtitle format used on BDs/HD-DVDs
  98. Language                                 : Chinese
  99. Default                                  : No
  100. Forced                                   : No
  101. Menu
  102. 00:00:00.000                             : en:Chapter 01
  103. 00:08:42.730                             : en:Chapter 02
  104. 00:15:28.135                             : en:Chapter 03
  105. 00:20:39.988                             : en:Chapter 04
  106. 00:25:25.190                             : en:Chapter 05
  107. 00:32:55.181                             : en:Chapter 06
  108. 00:39:17.855                             : en:Chapter 07
  109. 00:48:53.722                             : en:Chapter 08
  110. 00:55:06.928                             : en:Chapter 09
  111. 01:00:24.370                             : en:Chapter 10
  112. 01:07:38.220                             : en:Chapter 11
  113. 01:18:21.113                             : en:Chapter 12
  114. 01:31:47.210                             : en:Chapter 13
  115. 01:36:37.500                             : en:Chapter 14
复制代码




TAGS 剧情 恐怖 /

磁力链:
  • magnet:?xt=urn:btih:66C304F691A22B016B84CEEE92EEE295956ED5B3
上传的附件:
BT9527电影天堂 1、BT9527电影天堂提供的BT文件均来源于互联网抓取,只供网友学习交流、技术提升使用。
2、我们遵守BitTorrent点对点协议原则,任何版权问题请联系原资源发布商,我们不处理任何版权纠纷,谢谢!如有争议请联系邮箱:BT9527#hotmail.com(#换成@)
3、如果您发现某页面或地址有错误,请联系站长邮箱BT9527#hotmail.com(#换成@),我们会尽快处理。您的热心是对BT9527电影天堂最大的支持。
4、本站建议去正规影院观看电影以支持电影行业发展。
最新回复 (0)

你可以在 登录 or 注册 后,对此帖发表评论!

返回