千钧一发[国英多音轨/中英字幕].Gattaca.1997.BluRay.1080p.x265.10bit.3Audio-MiniHD 4.94GB

版主小s 4月前 259



◎译  名 千钧一发 / 变种异煞(港) / 自然人 / 戛塔卡 / 伽蒂卡 / 太空梦 / 基因代码
◎片  名 Gattaca
◎年  代 1997
◎产  地 美国
◎类  别 剧情 / 科幻 / 惊悚
◎语  言 英语 / 世界语
◎上映日期 1997-10-24(美国)
◎IMDb链接 https://www.imdb.com/title/tt0119177/
◎豆瓣评分 8.8/10 (258966人评价)
◎豆瓣链接 https://movie.douban.com/subject/1300117/
◎片  长 106分钟
◎导  演 安德鲁·尼科尔 Andrew Niccol (id:1018008)
◎编  剧 安德鲁·尼科尔 Andrew Niccol (id:1018008)
◎演  员 伊桑·霍克 Ethan Hawke (id:1018984)
       乌玛·瑟曼 Uma Thurman (id:1031221)
       裘德·洛 Jude Law (id:1010510)
       艾伦·阿金 Alan Arkin (id:1002730)
       戈尔·维达尔 Gore Vidal (id:1027965)
       山德·贝克利 Xander Berkeley (id:1036475)
       劳恩·迪恩 Loren Dean (id:1055500)
       简妮·布鲁克 Jayne Brook (id:1049761)
       伊莱亚斯·科泰斯 Elias Koteas (id:1031868)
       玛娅·鲁道夫 Maya Rudolph (id:1025183)
       伍娜·戴蒙 Una Damon (id:1336418)
       布莱尔·安德伍德 Blair Underwood (id:1049719)
       梅森·甘布 Mason Gamble (id:1014024)
       威廉姆·李·斯科特 William Lee Scott (id:1009378)
       欧内斯特·博格宁 Ernest Borgnine (id:1007005)
       托尼·夏尔赫布 Tony Shalhoub (id:1027825)
       肯·马里诺 Ken Marino (id:1036421)
       加布里埃尔·瑞丝 Gabrielle Reece (id:1014324)
       迪恩·诺里斯 Dean Norris (id:1315784)
       丹格里芬 Dan Griffin (id:1005619)
       格雷戈·赛斯特罗 Greg Sestero (id:1009569)
       Elizabeth Dennehy Elizabeth Dennehy (id:1080812)
       查德·克里斯特 Chad Christ (id:1076248)
       George Marshall Ruge George Marshall Ruge (id:1137556)
       Vincent Nielson Vincent Nielson (id:1438099)
       迈克尔·山姆伯格 Michael Shamberg (id:1297310)
       斯黛西·谢尔 Stacey Sher (id:1297432)
       迈克尔·尼曼 Michael Nyman (id:1000684)
       丽莎·泽诺·彻尔金 Lisa Zeno Churgin (id:1280790)
       扬·鲁洛尔夫斯 Jan Roelfs (id:1295893)
       Sarah Knowles Sarah Knowles (id:1288782)
       南希·奈 Nancy Nye (id:1293338)
       柯琳·阿特伍德 Colleen Atwood (id:1277560)
       维·尼尔 Ve Neill (id:1293011)
       吉尔·罗考 Jill Rockow (id:1295844)
       艾丽西娅·M·特里皮 Alicia M. Tripi (id:1299524)
       Toni-Ann Walker Toni-Ann Walker (id:1300313)
       Brian Penikas Brian Penikas (id:1294253)
       Chris Watts Chris Watts (id:1300517)
       迪克·费朗 Deak Ferrand (id:1283613)
       理查德·金 Richard King (id:1288602)

◎简  介
  未来的世界,科技的力量胜过一切,基因决定命运,几乎成为金科玉律。不幸文森特(伊桑?霍克 Ethan Hawke  饰)是一个基因不良的人,出生以来就决定了他近视和心脏病的缺陷,他只能活到30岁。于是父母为文森特增添了一个有着优良基因的弟弟。                                    
                                文森特的梦想是漫游太空,然而恶劣的基因令他无法圆梦,直到他遇到了太空中心的杰罗姆(裘德?洛 Jude Law  饰)。杰罗姆有优秀的基因,却在一次意外中半身瘫痪。二人决定调换身份,文森特千方百计隐藏自己的基因信息,每天都认真清洗掉自己的皮屑毛发,不暴露任何蛛丝马迹。另一方面,杰罗姆帮他筹备进入太空前需要检查的基因物品。事情进展得非常顺利,然而一桩谋杀案和一根睫毛,让事情节外生枝。

◎获奖情况 (共2项)
  第70届奥斯卡金像奖 (1998)
  最佳艺术指导(提名)

  第55届金球奖 (1998)
  电影类 最佳原创配乐(提名)
   └──迈克尔·尼曼 (id:1000684)

  1. ##### MediaInfo ######
  2. General
  3. Unique ID                                : 177445174198640733349924807689771240614 (0x857EB28BED5257EE9DC6A702BDD14CA6)
  4. Complete name                            : Gattaca.1997.BluRay.1080p.x265.10bit.3Audio-MiniHD.mkv
  5. Format                                   : Matroska
  6. Format version                           : Version 4
  7. File size                                : 4.94 GiB
  8. Duration                                 : 1 h 46 min
  9. Overall bit rate                         : 6 638 kb/s
  10. Encoded date                             : UTC 2017-08-21 01:03:33
  11. Writing application                      : mkvmerge v11.0.0 ('Alive') 64bit
  12. Writing library                          : libebml v1.3.4 + libmatroska v1.4.5
  13. Video
  14. ID                                       : 1
  15. Format                                   : HEVC
  16. Format/Info                              : High Efficiency Video Coding
  17. Codec ID                                 : V_MPEGH/ISO/HEVC
  18. Duration                                 : 1 h 46 min
  19. Bit rate                                 : 4 778 kb/s
  20. Width                                    : 1 920 pixels
  21. Height                                   : 800 pixels
  22. Display aspect ratio                     : 2.40:1
  23. Frame rate mode                          : Constant
  24. Frame rate                               : 23.976 (24000/1001/53354) FPS
  25. Bits/(Pixel*Frame)                       : 0.130
  26. Stream size                              : 3.55 GiB (72%)
  27. Default                                  : Yes
  28. Forced                                   : No
  29. Audio #1
  30. ID                                       : 2
  31. Format                                   : AC-3
  32. Format/Info                              : Audio Coding 3
  33. Commercial name                          : Dolby Digital
  34. Codec ID                                 : A_AC3
  35. Duration                                 : 1 h 46 min
  36. Bit rate mode                            : Constant
  37. Bit rate                                 : 640 kb/s
  38. Channel(s)                               : 6 channels
  39. Channel layout                           : L R C LFE Ls Rs
  40. Sampling rate                            : 48.0 kHz
  41. Frame rate                               : 31.250 FPS (1536 SPF)
  42. Compression mode                         : Lossy
  43. Stream size                              : 487 MiB (10%)
  44. Language                                 : English
  45. Service kind                             : Complete Main
  46. Default                                  : Yes
  47. Forced                                   : No
  48. Audio #2
  49. ID                                       : 3
  50. Format                                   : AC-3
  51. Format/Info                              : Audio Coding 3
  52. Commercial name                          : Dolby Digital
  53. Codec ID                                 : A_AC3
  54. Duration                                 : 1 h 46 min
  55. Bit rate mode                            : Constant
  56. Bit rate                                 : 640 kb/s
  57. Channel(s)                               : 6 channels
  58. Channel layout                           : L R C LFE Ls Rs
  59. Sampling rate                            : 48.0 kHz
  60. Frame rate                               : 31.250 FPS (1536 SPF)
  61. Compression mode                         : Lossy
  62. Stream size                              : 487 MiB (10%)
  63. Language                                 : Chinese
  64. Service kind                             : Complete Main
  65. Default                                  : No
  66. Forced                                   : No
  67. Audio #3
  68. ID                                       : 4
  69. Format                                   : AC-3
  70. Format/Info                              : Audio Coding 3
  71. Commercial name                          : Dolby Digital
  72. Codec ID                                 : A_AC3
  73. Duration                                 : 1 h 46 min
  74. Bit rate mode                            : Constant
  75. Bit rate                                 : 448 kb/s
  76. Channel(s)                               : 6 channels
  77. Channel layout                           : L R C LFE Ls Rs
  78. Sampling rate                            : 48.0 kHz
  79. Frame rate                               : 31.250 FPS (1536 SPF)
  80. Compression mode                         : Lossy
  81. Stream size                              : 341 MiB (7%)
  82. Language                                 : Chinese
  83. Service kind                             : Complete Main
  84. Default                                  : No
  85. Forced                                   : No
  86. Text #1
  87. ID                                       : 5
  88. Format                                   : PGS
  89. Muxing mode                              : zlib
  90. Codec ID                                 : S_HDMV/PGS
  91. Codec ID/Info                            : Picture based subtitle format used on BDs/HD-DVDs
  92. Language                                 : English
  93. Default                                  : Yes
  94. Forced                                   : No
  95. Text #2
  96. ID                                       : 6
  97. Format                                   : PGS
  98. Muxing mode                              : zlib
  99. Codec ID                                 : S_HDMV/PGS
  100. Codec ID/Info                            : Picture based subtitle format used on BDs/HD-DVDs
  101. Language                                 : Chinese
  102. Default                                  : No
  103. Forced                                   : No
  104. Text #3
  105. ID                                       : 7
  106. Format                                   : PGS
  107. Muxing mode                              : zlib
  108. Codec ID                                 : S_HDMV/PGS
  109. Codec ID/Info                            : Picture based subtitle format used on BDs/HD-DVDs
  110. Language                                 : Chinese
  111. Default                                  : No
  112. Forced                                   : No
  113. Text #4
  114. ID                                       : 8
  115. Format                                   : PGS
  116. Muxing mode                              : zlib
  117. Codec ID                                 : S_HDMV/PGS
  118. Codec ID/Info                            : Picture based subtitle format used on BDs/HD-DVDs
  119. Language                                 : Chinese
  120. Default                                  : No
  121. Forced                                   : No
  122. Text #5
  123. ID                                       : 9
  124. Format                                   : PGS
  125. Muxing mode                              : zlib
  126. Codec ID                                 : S_HDMV/PGS
  127. Codec ID/Info                            : Picture based subtitle format used on BDs/HD-DVDs
  128. Language                                 : Chinese
  129. Default                                  : No
  130. Forced                                   : No
  131. Text #6
  132. ID                                       : 10
  133. Format                                   : PGS
  134. Muxing mode                              : zlib
  135. Codec ID                                 : S_HDMV/PGS
  136. Codec ID/Info                            : Picture based subtitle format used on BDs/HD-DVDs
  137. Language                                 : Chinese
  138. Default                                  : No
  139. Forced                                   : No
  140. Text #7
  141. ID                                       : 11
  142. Format                                   : PGS
  143. Muxing mode                              : zlib
  144. Codec ID                                 : S_HDMV/PGS
  145. Codec ID/Info                            : Picture based subtitle format used on BDs/HD-DVDs
  146. Language                                 : Chinese
  147. Default                                  : No
  148. Forced                                   : No
  149. Menu
  150. 00:00:00.000                             : en:Chapter 01
  151. 00:07:39.083                             : en:Chapter 02
  152. 00:10:58.491                             : en:Chapter 03
  153. 00:18:49.711                             : en:Chapter 04
  154. 00:23:40.210                             : en:Chapter 05
  155. 00:31:38.730                             : en:Chapter 06
  156. 00:37:20.947                             : en:Chapter 07
  157. 00:43:47.541                             : en:Chapter 08
  158. 00:48:39.207                             : en:Chapter 09
  159. 00:56:10.867                             : en:Chapter 10
  160. 01:03:50.409                             : en:Chapter 11
  161. 01:08:56.257                             : en:Chapter 12
  162. 01:17:00.949                             : en:Chapter 13
  163. 01:22:14.387                             : en:Chapter 14
  164. 01:28:35.518                             : en:Chapter 15
  165. 01:34:10.728                             : en:Chapter 16
复制代码




TAGS 剧情 惊悚 科幻 /

磁力链:
  • magnet:?xt=urn:btih:202C988EF1ED318B5C566330F623312D2E51ECF9
上传的附件:
BT9527电影天堂 1、BT9527电影天堂提供的BT文件均来源于互联网抓取,只供网友学习交流、技术提升使用。
2、我们遵守BitTorrent点对点协议原则,任何版权问题请联系原资源发布商,我们不处理任何版权纠纷,谢谢!如有争议请联系邮箱:BT9527#hotmail.com(#换成@)
3、如果您发现某页面或地址有错误,请联系站长邮箱BT9527#hotmail.com(#换成@),我们会尽快处理。您的热心是对BT9527电影天堂最大的支持。
4、本站建议去正规影院观看电影以支持电影行业发展。
最新回复 (0)

你可以在 登录 or 注册 后,对此帖发表评论!

返回
发新帖