勇闯夺命岛[国英多音轨/中英字幕].The.Rock.1996.BluRay.1080p.x265.10bit.3Audio-MiniHD 11.27GB

版主小s 1月前 164



◎译  名 勇闯夺命岛 / 石破天惊(港) / 绝地任务(台)
◎片  名 The Rock
◎年  代 1996
◎产  地 美国
◎类  别 动作 / 冒险
◎语  言 英语
◎上映日期 1996-06-07(美国)
◎IMDb链接 https://www.imdb.com/title/tt0117500/
◎豆瓣评分 8.6/10 (235377人评价)
◎豆瓣链接 https://movie.douban.com/subject/1292728/
◎片  长 136分钟
◎导  演 迈克尔·贝 Michael Bay (id:1027776)
◎编  剧 大卫·韦斯伯格 David Weisberg (id:1356776)
       道格拉斯·库克 Douglas Cook (id:1356775)
       道格拉斯·库克 Douglas Cook (id:1026252)
◎演  员 肖恩·康纳利 Sean Connery (id:1018982)
       尼古拉斯·凯奇 Nicolas Cage (id:1054455)
       艾德·哈里斯 Ed Harris (id:1048024)
       约翰·斯宾塞 John Spencer (id:1154416)
       大卫·摩斯 David Morse (id:1027810)
       威廉·弗西斯 William Forsythe (id:1019063)
       迈克尔·比恩 Michael Biehn (id:1025190)
       瓦内萨·马赛尔 Vanessa Marcil (id:1027156)
       约翰·C·麦金雷 John C. McGinley (id:1025189)
       托尼·托德 Tony Todd (id:1036498)
       博基姆·伍德拜因 Bokeem Woodbine (id:1000287)
       格雷格·科林斯 Greg Collins (id:1071934)
       布伦丹·凯利 Brendan Kelly (id:1027494)
       史蒂夫·哈里斯 Steve Harris (id:1055408)
       丹尼·努齐 Danny Nucci (id:1049735)
       克莱尔·弗兰妮 Claire Forlani (id:1009261)
       托德·路易斯 Todd Louiso (id:1004880)
       大卫·鲍 David Bowe (id:1069956)
       Dennis Chalker Dennis Chalker (id:1070219)
       Billy Devlin Billy Devlin (id:1085846)
       因格·内哈斯 Ingo Neuhaus (id:1293083)
       约翰·拉夫林 John Laughlin (id:1000617)
       哈利·哈姆弗瑞斯 Harry Humphries (id:1041929)
       霍华德·普拉特 Howard Platt (id:1131266)
       威利·加森 Willie Garson (id:1031932)
       Thomas J. Hageboeck Thomas J. Hageboeck (id:1094296)
       德怀特·希克斯 Dwight Hicks (id:1097906)
       安东尼·克拉克 Anthony Clark (id:1072955)
       雷蒙德·奥康纳 Raymond O'Connor (id:1134029)
       路奈尔·坎贝尔 Luenell Campell (id:1075728)
       山姆·惠普尔 Sam Whipple (id:1169103)
       汤姆·托尔斯 Tom Towles (id:1152583)
       安东尼·吉德拉 Anthony Guidera (id:1285611)
       吉姆·卡维泽 Jim Caviezel (id:1027807)
       约翰·伊诺斯三世 John Enos III (id:1055957)
       布克·卡特里安 Buck Kartalian (id:1107001)
       马修杰姆斯居尔布兰松 Matthew James Gulbranson (id:1227950)
       斯坦利·安德森 Stanley Anderson (id:1027583)
       山德·贝克利 Xander Berkeley (id:1036475)
       Richard Conti Richard Conti (id:1334574)
       雷蒙德·克鲁斯 Raymond Cruz (id:1076277)
       里克·德拉辛 Ric Drasin (id:1082690)
       大卫·马歇尔·格兰特 David Marshall Grant (id:1019189)
       菲利普·贝克·霍尔 Philip Baker Hall (id:1049779)
       迈克尔·罗斯 Michael Rose (id:1386263)
       杰洛米诺·斯芬克斯 Jeronimo Spinx (id:1387748)
       Ezra Stanley Ezra Stanley (id:1156932)
       凯文·韦斯曼 Kevin Weisman (id:1014032)
       斯图亚特·维尔森 Stuart Wilson (id:1167174)
       肯尼·贝茨 Kenny Bates (id:1278088)
       汉斯·季默 Hans Zimmer (id:1054386)
       约翰·施瓦兹曼 John Schwartzman (id:1027646)
       海蒂·莱维特 Heidi Levitt (id:1289921)
       罗斯玛丽·勃兰登堡 Rosemary Brandenburg (id:1279191)
       马克·W·曼斯布里奇 Mark W. Mansbridge (id:1290903)
       彼得·罗勃-金 Peter Robb-King (id:1295741)
       詹姆斯·罗兰德 James Rohland (id:1295831)
       金·桑坦托尼奥 Kim Santantonio (id:1296669)
       托尼·加德纳 Tony Gardner (id:1284564)
       史蒂文·E·安德森 Steven E. Anderson (id:1277228)
       Pat Gerhardt Pat Gerhardt (id:1284738)
       约兰达·塔辛 Yolanda Toussieng (id:1299453)
       丹·德里伍 Dan DeLeeuw (id:1388220)
       丹尼斯·霍夫曼 Dennis Hoffman (id:1286766)
       Blaine Kennison Blaine Kennison (id:1288414)
       John Knox John Knox (id:1288784)
       马克·丹菲特 Mark Dornfeld (id:1282612)
       Darin Hollings Darin Hollings (id:1286814)
       John Murrah John Murrah (id:1292768)

◎简  介
  美国海军陆战队法兰(艾德?哈里斯 Ed Harris 饰)将军因不满政府对退伍、战死军人及其家属的补偿和福利不满,率领部下将美军最新研制的生化武器――VX毒气弹――偷运到罗克岛,劫持了81名正在该岛观光的游客,控制了该岛。要挟美国政府48小时内支付1亿元赎金否则将杀死人质并用毒气弹袭击旧金山。                                    
                                罗克岛之前曾是美国防卫最严密的监狱,易守难攻。美国政府偶然从档案中发现前英国特工梅森(肖恩?康纳利 Sean Connery 饰)曾顺利从该监狱出逃,于是他们请来了梅森,要求他30小时之内带领特种部队攻占这座“魔鬼岛”……

◎获奖情况 (共1项)
  第69届奥斯卡金像奖 (1997)
  最佳音响(提名)

  1. ##### MediaInfo ######
  2. General
  3. Unique ID                                : 210156736121246995589798948971062544888 (0x9E1AB71184B6164F8446B315F4CCC9F8)
  4. Complete name                            : The.Rock.1996.BluRay.1080p.x265.10bit.3Audio-MiniHD.mkv
  5. Format                                   : Matroska
  6. Format version                           : Version 4
  7. File size                                : 11.3 GiB
  8. Duration                                 : 2 h 16 min
  9. Overall bit rate                         : 11.8 Mb/s
  10. Encoded date                             : UTC 2017-07-12 19:06:47
  11. Writing application                      : mkvmerge v11.0.0 ('Alive') 64bit
  12. Writing library                          : libebml v1.3.4 + libmatroska v1.4.5
  13. Video
  14. ID                                       : 1
  15. Format                                   : HEVC
  16. Format/Info                              : High Efficiency Video Coding
  17. Codec ID                                 : V_MPEGH/ISO/HEVC
  18. Duration                                 : 2 h 16 min
  19. Bit rate                                 : 10.0 Mb/s
  20. Width                                    : 1 920 pixels
  21. Height                                   : 816 pixels
  22. Display aspect ratio                     : 2.35:1
  23. Frame rate mode                          : Constant
  24. Frame rate                               : 23.976 (24000/1001/53354) FPS
  25. Bits/(Pixel*Frame)                       : 0.266
  26. Stream size                              : 9.54 GiB (85%)
  27. Default                                  : Yes
  28. Forced                                   : No
  29. Audio #1
  30. ID                                       : 2
  31. Format                                   : AC-3
  32. Format/Info                              : Audio Coding 3
  33. Commercial name                          : Dolby Digital
  34. Codec ID                                 : A_AC3
  35. Duration                                 : 2 h 16 min
  36. Bit rate mode                            : Constant
  37. Bit rate                                 : 640 kb/s
  38. Channel(s)                               : 6 channels
  39. Channel layout                           : L R C LFE Ls Rs
  40. Sampling rate                            : 48.0 kHz
  41. Frame rate                               : 31.250 FPS (1536 SPF)
  42. Compression mode                         : Lossy
  43. Stream size                              : 625 MiB (5%)
  44. Language                                 : English
  45. Service kind                             : Complete Main
  46. Default                                  : Yes
  47. Forced                                   : No
  48. Audio #2
  49. ID                                       : 3
  50. Format                                   : AC-3
  51. Format/Info                              : Audio Coding 3
  52. Commercial name                          : Dolby Digital
  53. Codec ID                                 : A_AC3
  54. Duration                                 : 2 h 16 min
  55. Bit rate mode                            : Constant
  56. Bit rate                                 : 640 kb/s
  57. Channel(s)                               : 6 channels
  58. Channel layout                           : L R C LFE Ls Rs
  59. Sampling rate                            : 48.0 kHz
  60. Frame rate                               : 31.250 FPS (1536 SPF)
  61. Compression mode                         : Lossy
  62. Stream size                              : 625 MiB (5%)
  63. Language                                 : Chinese
  64. Service kind                             : Complete Main
  65. Default                                  : No
  66. Forced                                   : No
  67. Audio #3
  68. ID                                       : 4
  69. Format                                   : AC-3
  70. Format/Info                              : Audio Coding 3
  71. Commercial name                          : Dolby Digital
  72. Codec ID                                 : A_AC3
  73. Duration                                 : 2 h 16 min
  74. Bit rate mode                            : Constant
  75. Bit rate                                 : 384 kb/s
  76. Channel(s)                               : 6 channels
  77. Channel layout                           : L R C LFE Ls Rs
  78. Sampling rate                            : 48.0 kHz
  79. Frame rate                               : 31.250 FPS (1536 SPF)
  80. Compression mode                         : Lossy
  81. Stream size                              : 375 MiB (3%)
  82. Language                                 : Chinese
  83. Service kind                             : Complete Main
  84. Default                                  : No
  85. Forced                                   : No
  86. Text #1
  87. ID                                       : 5
  88. Format                                   : PGS
  89. Muxing mode                              : zlib
  90. Codec ID                                 : S_HDMV/PGS
  91. Codec ID/Info                            : Picture based subtitle format used on BDs/HD-DVDs
  92. Duration                                 : 2 h 10 min
  93. Bit rate                                 : 24.3 kb/s
  94. Count of elements                        : 3026
  95. Stream size                              : 22.6 MiB (0%)
  96. Language                                 : English
  97. Default                                  : Yes
  98. Forced                                   : No
  99. Text #2
  100. ID                                       : 6
  101. Format                                   : PGS
  102. Muxing mode                              : zlib
  103. Codec ID                                 : S_HDMV/PGS
  104. Codec ID/Info                            : Picture based subtitle format used on BDs/HD-DVDs
  105. Duration                                 : 2 h 10 min
  106. Bit rate                                 : 32.6 kb/s
  107. Count of elements                        : 3460
  108. Stream size                              : 30.4 MiB (0%)
  109. Language                                 : Chinese
  110. Default                                  : No
  111. Forced                                   : No
  112. Text #3
  113. ID                                       : 7
  114. Format                                   : PGS
  115. Muxing mode                              : zlib
  116. Codec ID                                 : S_HDMV/PGS
  117. Codec ID/Info                            : Picture based subtitle format used on BDs/HD-DVDs
  118. Duration                                 : 2 h 16 min
  119. Bit rate                                 : 18.3 kb/s
  120. Count of elements                        : 4177
  121. Stream size                              : 17.8 MiB (0%)
  122. Language                                 : Chinese
  123. Default                                  : No
  124. Forced                                   : No
  125. Text #4
  126. ID                                       : 8
  127. Format                                   : PGS
  128. Muxing mode                              : zlib
  129. Codec ID                                 : S_HDMV/PGS
  130. Codec ID/Info                            : Picture based subtitle format used on BDs/HD-DVDs
  131. Duration                                 : 2 h 16 min
  132. Bit rate                                 : 18.8 kb/s
  133. Count of elements                        : 4176
  134. Stream size                              : 18.3 MiB (0%)
  135. Language                                 : Chinese
  136. Default                                  : No
  137. Forced                                   : No
  138. Text #5
  139. ID                                       : 9
  140. Format                                   : PGS
  141. Muxing mode                              : zlib
  142. Codec ID                                 : S_HDMV/PGS
  143. Codec ID/Info                            : Picture based subtitle format used on BDs/HD-DVDs
  144. Duration                                 : 2 h 16 min
  145. Bit rate                                 : 30.6 kb/s
  146. Count of elements                        : 4177
  147. Stream size                              : 29.8 MiB (0%)
  148. Language                                 : Chinese
  149. Default                                  : No
  150. Forced                                   : No
  151. Text #6
  152. ID                                       : 10
  153. Format                                   : PGS
  154. Muxing mode                              : zlib
  155. Codec ID                                 : S_HDMV/PGS
  156. Codec ID/Info                            : Picture based subtitle format used on BDs/HD-DVDs
  157. Duration                                 : 2 h 16 min
  158. Bit rate                                 : 31.1 kb/s
  159. Count of elements                        : 4176
  160. Stream size                              : 30.3 MiB (0%)
  161. Language                                 : Chinese
  162. Default                                  : No
  163. Forced                                   : No
  164. Menu
  165. 00:00:00.000                             : en:Chapter 01
  166. 00:00:35.035                             : en:Chapter 02
  167. 00:03:51.022                             : en:Chapter 03
  168. 00:07:57.518                             : en:Chapter 04
  169. 00:14:17.773                             : en:Chapter 05
  170. 00:16:18.477                             : en:Chapter 06
  171. 00:24:59.080                             : en:Chapter 07
  172. 00:26:46.605                             : en:Chapter 08
  173. 00:28:43.763                             : en:Chapter 09
  174. 00:39:45.633                             : en:Chapter 10
  175. 00:43:41.744                             : en:Chapter 11
  176. 00:49:41.812                             : en:Chapter 12
  177. 00:53:48.934                             : en:Chapter 13
  178. 00:55:31.244                             : en:Chapter 14
  179. 00:59:20.598                             : en:Chapter 15
  180. 01:04:47.425                             : en:Chapter 16
  181. 01:09:15.568                             : en:Chapter 17
  182. 01:14:07.401                             : en:Chapter 18
  183. 01:17:09.124                             : en:Chapter 19
  184. 01:18:47.639                             : en:Chapter 20
  185. 01:24:17.510                             : en:Chapter 21
  186. 01:28:56.956                             : en:Chapter 22
  187. 01:34:33.125                             : en:Chapter 23
  188. 01:39:54.238                             : en:Chapter 24
  189. 01:43:04.678                             : en:Chapter 25
  190. 01:46:29.549                             : en:Chapter 26
  191. 01:49:50.041                             : en:Chapter 27
  192. 01:53:01.107                             : en:Chapter 28
  193. 01:57:08.563                             : en:Chapter 29
  194. 02:00:09.702                             : en:Chapter 30
  195. 02:06:17.653                             : en:Chapter 31
  196. 02:10:10.636                             : en:Chapter 32
  197. 02:16:28.346                             : en:Chapter 33
复制代码




TAGS 动作 冒险 /

磁力链:
  • magnet:?xt=urn:btih:A430185382DC5DCA1837FEBB7453C20ACB2A6798
上传的附件:
BT9527电影天堂 1、BT9527电影天堂提供的BT文件均来源于互联网抓取,只供网友学习交流、技术提升使用。
2、我们遵守BitTorrent点对点协议原则,任何版权问题请联系原资源发布商,我们不处理任何版权纠纷,谢谢!如有争议请联系邮箱:BT9527#hotmail.com(#换成@)
3、如果您发现某页面或地址有错误,请联系站长邮箱BT9527#hotmail.com(#换成@),我们会尽快处理。您的热心是对BT9527电影天堂最大的支持。
4、本站建议去正规影院观看电影以支持电影行业发展。
最新回复 (0)

你可以在 登录 or 注册 后,对此帖发表评论!

返回
发新帖