勇士[中英字幕].Warrior.2011.BluRay.1080p.x265.10bit-MiniHD 8.26GB

版主小s 1月前 154



◎译  名 勇士 / 勇者无敌(台) / 钢铁斗士(港) / 武士 / 拳击勇士
◎片  名 Warrior
◎年  代 2011
◎产  地 美国
◎类  别 剧情 / 家庭 / 运动
◎语  言 英语
◎上映日期 2011-09-09(美国)
◎IMDb链接 https://www.imdb.com/title/tt1291584/
◎豆瓣评分 8.9/10 (151820人评价)
◎豆瓣链接 https://movie.douban.com/subject/3217169/
◎片  长 140分钟
◎导  演 加文·欧康诺 Gavin O'Connor (id:1293387)
◎编  剧 加文·欧康诺 Gavin O'Connor (id:1293387)
       安东尼·塔姆巴基斯 Anthony Tambakis (id:1020009)
◎演  员 汤姆·哈迪 Tom Hardy (id:1049489)
       乔尔·埃哲顿 Joel Edgerton (id:1010631)
       尼克·诺特 Nick Nolte (id:1006989)
       詹妮弗·莫里森 Jennifer Morrison (id:1000022)
       弗兰克·格里罗 Frank Grillo (id:1100321)
       凯文·杜恩 Kevin Dunn (id:1049634)
       加文·欧康诺 Gavin O'Connor (id:1293387)
       Nick Marcucci Nick Marcucci (id:1239992)
       杰克·麦克劳克林 Jake McLaughlin (id:1247750)
       费尔南多·钱 Fernando Chien (id:1339501)
       加文·欧康诺 Gavin O'Connor (id:1293387)
       马克·艾沙姆 Mark Isham (id:1050293)
       李庸基 Yong-Gi Lee (id:1314650)

◎简  介
  这是一个破碎的家庭,酗酒的教练父亲帕迪(尼克·诺特 Nick Nolte 饰)家暴妻子,次子汤米(汤姆·哈迪 Tom Hardy 饰)与不堪忍受的母亲远赴他乡;长子布兰登(乔尔·埃哲顿 Joel Edgerton 饰)为了爱情选择留下,并认为从此可以得到父亲的器重与栽培,然而最后父子还是分道扬镳。时隔多年后,汤米带着母亲痛苦死去的悲伤记忆,以及在伊战中的惨痛经历找到父亲,要求后者再度担任自己的教练,以参加MMA的重奖大赛;几乎与此同时,昔日的职业格斗选手、如今的中学物理教师布兰登为金钱所困扰,他不能忍受自己无法为妻女提供庇护,决定重返赛场。在MMA的赛场上,这对分离多年的兄弟将再度聚首,用血与汗的交融,化释彼此的心结……

◎获奖情况 (共8项)
  第84届奥斯卡金像奖 (2012)
  最佳男配角(提名)
   └──尼克·诺特 (id:1006989)

  第21届MTV电影奖 (2012)
  MTV电影奖 最佳打斗(提名)

  第17届美国评论家选择电影奖 (2012)
  最佳男配角(提名)
   └──尼克·诺特 (id:1006989)

  第16届圣地亚哥影评人协会奖 (2011)
  最佳男配角
   └──尼克·诺特 (id:1006989)

  第24届芝加哥影评人协会奖 (2011)
  最佳男配角(提名)
   └──尼克·诺特 (id:1006989)

  第14届美国青少年选择奖 (2012)
  最佳动作片男演员(提名)
   └──汤姆·哈迪 (id:1049489)

  第2届豆瓣电影鑫像奖 (2012)
  鑫豆单元 最佳影片(外语)(提名)
  鑫豆单元 最佳男演员(外语)(提名)
   └──汤姆·哈迪 (id:1049489)

  1. ##### MediaInfo ######
  2. General
  3. Unique ID                                : 225950505591507140901783653947228872916 (0xA9FC7C0604592E7A819E061C84DCE0D4)
  4. Complete name                            : Warrior.2011.BluRay.1080p.x265.10bit-MiniHD.mkv
  5. Format                                   : Matroska
  6. Format version                           : Version 4
  7. File size                                : 8.26 GiB
  8. Duration                                 : 2 h 19 min
  9. Overall bit rate                         : 8 448 kb/s
  10. Encoded date                             : UTC 2017-07-21 09:59:23
  11. Writing application                      : mkvmerge v11.0.0 ('Alive') 64bit
  12. Writing library                          : libebml v1.3.4 + libmatroska v1.4.5
  13. Video
  14. ID                                       : 1
  15. Format                                   : HEVC
  16. Format/Info                              : High Efficiency Video Coding
  17. Codec ID                                 : V_MPEGH/ISO/HEVC
  18. Duration                                 : 2 h 19 min
  19. Bit rate                                 : 7 695 kb/s
  20. Width                                    : 1 920 pixels
  21. Height                                   : 800 pixels
  22. Display aspect ratio                     : 2.40:1
  23. Frame rate mode                          : Constant
  24. Frame rate                               : 23.976 (24000/1001/53354) FPS
  25. Bits/(Pixel*Frame)                       : 0.209
  26. Stream size                              : 7.52 GiB (91%)
  27. Default                                  : Yes
  28. Forced                                   : No
  29. Audio
  30. ID                                       : 2
  31. Format                                   : AC-3
  32. Format/Info                              : Audio Coding 3
  33. Commercial name                          : Dolby Digital
  34. Codec ID                                 : A_AC3
  35. Duration                                 : 2 h 19 min
  36. Bit rate mode                            : Constant
  37. Bit rate                                 : 640 kb/s
  38. Channel(s)                               : 6 channels
  39. Channel layout                           : L R C LFE Ls Rs
  40. Sampling rate                            : 48.0 kHz
  41. Frame rate                               : 31.250 FPS (1536 SPF)
  42. Compression mode                         : Lossy
  43. Stream size                              : 640 MiB (8%)
  44. Language                                 : English
  45. Service kind                             : Complete Main
  46. Default                                  : Yes
  47. Forced                                   : No
  48. Text #1
  49. ID                                       : 3
  50. Format                                   : PGS
  51. Muxing mode                              : zlib
  52. Codec ID                                 : S_HDMV/PGS
  53. Codec ID/Info                            : Picture based subtitle format used on BDs/HD-DVDs
  54. Duration                                 : 2 h 8 min
  55. Bit rate                                 : 23.0 kb/s
  56. Count of elements                        : 4154
  57. Stream size                              : 21.1 MiB (0%)
  58. Language                                 : English
  59. Default                                  : Yes
  60. Forced                                   : No
  61. Text #2
  62. ID                                       : 4
  63. Format                                   : PGS
  64. Muxing mode                              : zlib
  65. Codec ID                                 : S_HDMV/PGS
  66. Codec ID/Info                            : Picture based subtitle format used on BDs/HD-DVDs
  67. Duration                                 : 2 h 11 min
  68. Bit rate                                 : 24.8 kb/s
  69. Count of elements                        : 4474
  70. Stream size                              : 23.3 MiB (0%)
  71. Language                                 : English
  72. Default                                  : No
  73. Forced                                   : No
  74. Text #3
  75. ID                                       : 5
  76. Format                                   : PGS
  77. Muxing mode                              : zlib
  78. Codec ID                                 : S_HDMV/PGS
  79. Codec ID/Info                            : Picture based subtitle format used on BDs/HD-DVDs
  80. Duration                                 : 2 h 10 min
  81. Bit rate                                 : 17.7 kb/s
  82. Count of elements                        : 3650
  83. Stream size                              : 16.4 MiB (0%)
  84. Language                                 : Chinese
  85. Default                                  : No
  86. Forced                                   : No
  87. Text #4
  88. ID                                       : 6
  89. Format                                   : PGS
  90. Muxing mode                              : zlib
  91. Codec ID                                 : S_HDMV/PGS
  92. Codec ID/Info                            : Picture based subtitle format used on BDs/HD-DVDs
  93. Duration                                 : 2 h 10 min
  94. Bit rate                                 : 18.2 kb/s
  95. Count of elements                        : 3650
  96. Stream size                              : 17.0 MiB (0%)
  97. Language                                 : Chinese
  98. Default                                  : No
  99. Forced                                   : No
  100. Text #5
  101. ID                                       : 7
  102. Format                                   : PGS
  103. Muxing mode                              : zlib
  104. Codec ID                                 : S_HDMV/PGS
  105. Codec ID/Info                            : Picture based subtitle format used on BDs/HD-DVDs
  106. Duration                                 : 2 h 10 min
  107. Bit rate                                 : 17.7 kb/s
  108. Count of elements                        : 3650
  109. Stream size                              : 16.4 MiB (0%)
  110. Language                                 : Chinese
  111. Default                                  : No
  112. Forced                                   : No
  113. Text #6
  114. ID                                       : 8
  115. Format                                   : PGS
  116. Muxing mode                              : zlib
  117. Codec ID                                 : S_HDMV/PGS
  118. Codec ID/Info                            : Picture based subtitle format used on BDs/HD-DVDs
  119. Duration                                 : 2 h 10 min
  120. Bit rate                                 : 18.2 kb/s
  121. Count of elements                        : 3650
  122. Stream size                              : 17.0 MiB (0%)
  123. Language                                 : Chinese
  124. Default                                  : No
  125. Forced                                   : No
  126. Menu
  127. 00:00:00.000                             : en:00:00:00.000
  128. 00:08:36.391                             : en:00:08:36.391
  129. 00:16:46.881                             : en:00:16:46.881
  130. 00:23:37.166                             : en:00:23:37.166
  131. 00:30:46.678                             : en:00:30:46.678
  132. 00:37:25.368                             : en:00:37:25.368
  133. 00:45:49.789                             : en:00:45:49.789
  134. 00:52:20.012                             : en:00:52:20.012
  135. 01:00:44.808                             : en:01:00:44.808
  136. 01:08:01.661                             : en:01:08:01.661
  137. 01:16:02.808                             : en:01:16:02.808
  138. 01:26:50.664                             : en:01:26:50.664
  139. 01:37:39.395                             : en:01:37:39.395
  140. 01:45:14.016                             : en:01:45:14.016
  141. 01:52:55.769                             : en:01:52:55.769
  142. 01:57:19.991                             : en:01:57:19.991
  143. 02:11:40.810                             : en:02:11:40.810
复制代码




TAGS 剧情 运动 家庭 /

磁力链:
  • magnet:?xt=urn:btih:5A4BC817249AD67D0F05DF742A1086362828066E
上传的附件:
BT9527电影天堂 1、BT9527电影天堂提供的BT文件均来源于互联网抓取,只供网友学习交流、技术提升使用。
2、我们遵守BitTorrent点对点协议原则,任何版权问题请联系原资源发布商,我们不处理任何版权纠纷,谢谢!如有争议请联系邮箱:BT9527#hotmail.com(#换成@)
3、如果您发现某页面或地址有错误,请联系站长邮箱BT9527#hotmail.com(#换成@),我们会尽快处理。您的热心是对BT9527电影天堂最大的支持。
4、本站建议去正规影院观看电影以支持电影行业发展。
最新回复 (0)

你可以在 登录 or 注册 后,对此帖发表评论!

返回